\m/ 80's metal \m/

Информационно-аналитический форум "80 см пыли" (In Search We Trust) "У нас никто никуда не спешит"
Me For You - http://me-4u.com
It is currently 21 Jul 2019

All times are UTC + 3 hours

Spoiler
Chat - temporary registration for foreign users (please leave your application here)







Post new topic Reply to topic  [ 1 post ] 
Author Message
 
PostPosted: 24 Oct 2009 
Хиппей (support team)
User avatar
Joined: 30 Jul 2007
Posts: 113573
Lоcаtion: Киев (Kyiv, UA)
Age: 46
Name: Andrey
Peer Gunt 1990 Years On The Road (comp.) [flac]

    Image

Genre: Hard Rock/Rock& Roll
Location: Finland
Format: ape+cue+log+covers
Size: 316 Mb


    1. Years On The Road - 04:13
    2. Bad Boys Are Here - 03:53
    3. Bartender - 03:11
    4. Losin’ My Mind - 04:08
    5. Train Train - 04:33
    6. I Don’t Wanna Be A Rock’n’Roll Star - 03:49
    7. Backseat - 04:21
    8. Wake Me Up - 03:21
    9. She Was Here For Rock’n’Roll - 03:46
    10. Hole In The Door - 03:13
    11. Let Her In - 03:37
    12. Handful Of Sand - 04:11

    TPT: 46:16

Mega
Narod

Несмотря на то, что это сборник, альбом слушается на одном дыхании. Великолепная работа :true:
Да, это смесь мотёрхеда и АЦДЦ, но какая же оригинальная. Финны, одним словом :dance:


Благодарим за лосика товарища Motor c MMT

phpBB [youtube]


log
EAC extraction logfile from 12. August 2008, 14:35 for CD
Peer Gьnt / Years on the road

Used drive : HL-DT-STDVDRAM GSA-4160B Adapter: 1 ID: 0
Read mode : Secure with NO C2, accurate stream, disable cache
Read offset correction : 667
Overread into Lead-In and Lead-Out : No

Used output format : D:\Install\Exact Audio Copy V0.95 preb 5\FLAC.EXE (User Defined Encoder)
128 kBit/s
Additional command line options : -6 -V %s

Other options :
Fill up missing offset samples with silence : Yes
Delete leading and trailing silent blocks : No
Native Win32 interface for Win NT & 2000


Range status and errors
Selected range
Filename D:\audio\Peer Gunt - Years On The Road\CDImage.flac.wav

Peak level 99.3 %
Range quality 99.9 %
CRC 0A3B6799
Copy OK

No errors occured

End of status report


cue
PERFORMER "Peer Gьnt"
TITLE "Years on the road"
FILE "CDImage.flac" WAVE
TRACK 01 AUDIO
TITLE "Years on the road"
PERFORMER "Peer Gьnt"
INDEX 00 00:00:00
INDEX 01 00:00:33
TRACK 02 AUDIO
TITLE "Bad boys are here"
PERFORMER "Peer Gьnt"
INDEX 00 04:12:03
INDEX 01 04:13:35
TRACK 03 AUDIO
TITLE "Bartender"
PERFORMER "Peer Gьnt"
INDEX 00 08:05:11
INDEX 01 08:06:48
TRACK 04 AUDIO
TITLE "Losin' my mind"
PERFORMER "Peer Gьnt"
INDEX 00 11:16:60
INDEX 01 11:18:00
TRACK 05 AUDIO
TITLE "Train train"
PERFORMER "Peer Gьnt"
INDEX 00 15:24:21
INDEX 01 15:26:18
TRACK 06 AUDIO
TITLE "I don't wanna be a rock'n roll star"
PERFORMER "Peer Gьnt"
INDEX 00 19:57:22
INDEX 01 19:59:43
TRACK 07 AUDIO
TITLE "Backseat"
PERFORMER "Peer Gьnt"
INDEX 00 23:46:17
INDEX 01 23:48:73
TRACK 08 AUDIO
TITLE "Wake me up"
PERFORMER "Peer Gьnt"
INDEX 00 28:08:31
INDEX 01 28:10:00
TRACK 09 AUDIO
TITLE "She was here for rock'n roll"
PERFORMER "Peer Gьnt"
INDEX 00 31:29:39
INDEX 01 31:31:13
TRACK 10 AUDIO
TITLE "Hole in the door"
PERFORMER "Peer Gьnt"
INDEX 00 35:16:04
INDEX 01 35:17:45
TRACK 11 AUDIO
TITLE "Let her in"
PERFORMER "Peer Gьnt"
INDEX 00 38:29:38
INDEX 01 38:31:13
TRACK 12 AUDIO
TITLE "Handful of sand"
PERFORMER "Peer Gьnt"
INDEX 00 42:05:08
INDEX 01 42:08:45

_________________


Top
 Profile E-mail  
 
Display posts from previous:  Sort by  
Post new topic Reply to topic  [ 1 post ] 

All times are UTC + 3 hours


Who is online

Users browsing this forum: No registered users and 2 guests


You cannot post new topics in this forum
You cannot reply to topics in this forum
You cannot edit your posts in this forum
You cannot delete your posts in this forum
You cannot post attachments in this forum

Search for:
Яндекс.Метрика
cron
Powered by phpBB © 2000, 2002, 2005, 2007 phpBB Group