\m/ 80's metal \m/

Информационно-аналитический форум "80 см пыли" (In Search We Trust) "У нас никто никуда не спешит"
Me For You - http://me-4u.com
It is currently 25 Oct 2020

All times are UTC + 3 hours

Spoiler
Chat - temporary registration for foreign users (please leave your application here)







Post new topic Reply to topic  [ 3 posts ] 
Author Message
 
PostPosted: 13 Oct 2009 
Работнечег
User avatar
Joined: 28 Aug 2007
Posts: 6363
Lоcаtion: г. Москва
Age: 31
Name: Дима
Image
Band: Pavlov's Dog
Album: Pampered Menial (Reissued In 2007)
Year: 1975 (2007)
Label: Rockville
Genre: Art Rock
Coutry: USA
Format: Flac + Log + Cue + Covers
Size: 241 Mb

Line-Up:
Sigfried Carver - cello
Douglas Rayburn - fluite,mellotron
David Surkamp - vocals
Steve Scorfina - guitar
Rick Stockton - bass
David Hamilton - keyboard
Mike Safron - drums


Tracklist:
01 - Julia 3:12
02 - Late November 3:13
03 - Song Dance 5:01
04 - Fast Gun 3:04
05 - Natchez Trace 3:43
06 - Theme From Subway Sue 4:25
07 - Episode 4:08
08 - Preludin 1:37
09 - Of Once And Future Kings 5:32


LOG
Отчёт EAC об извлечении, выполненном 14. сентября 2009, 18:20 для диска:
Pavlov«s Dog / Pampered Menial

Дисковод: PIONEER DVD-RW DVR-116D Adapter: 0 ID: 0
Режим чтения: Достоверный (C2: нет, Точный поток: да, Отключение кэша: да)
Коррекция смещения при чтении: 96
Способность читать области Lead-in и Lead-out : Нет

Выходной формат: Внутренние WAV-операции
44.100 Гц; 16 бит; стерео

Другие параметры:
Заполнение пропущенных сэмплов тишиной : Да
Удаление блоков с тишиной в начале и конце : Нет
Установленный внешний ASPI-интерфейс


Характеристики диапазона извлечения и сообщения об ошибках
Выбранный диапазон
Имя файла D:\Музыка\Lossless\Pavlov«s Dog - Pampered Menial.wav

Пиковый уровень 99.9 %
Качество диапазона 100.0 %
CRC 02D6F54E
Копирование... OK

Ошибок не произошло

Конец отчёта

CUE
REM DISCID 8B07F209
REM COMMENT "ExactAudioCopy v0.95b4"
PERFORMER "Pavlov«s Dog"
TITLE "Pampered Menial"
FILE "Pavlov«s Dog - Pampered Menial.wav" WAVE
TRACK 01 AUDIO
TITLE "Julia"
PERFORMER "Pavlov«s Dog"
INDEX 01 00:00:00
TRACK 02 AUDIO
TITLE "Late November"
PERFORMER "Pavlov«s Dog"
INDEX 01 03:11:51
TRACK 03 AUDIO
TITLE "Song Dance"
PERFORMER "Pavlov«s Dog"
INDEX 00 06:25:71
INDEX 01 06:25:72
TRACK 04 AUDIO
TITLE "Fast Gun"
PERFORMER "Pavlov«s Dog"
INDEX 01 11:26:73
TRACK 05 AUDIO
TITLE "Natchez Trace"
PERFORMER "Pavlov«s Dog"
INDEX 01 14:32:59
TRACK 06 AUDIO
TITLE "Theme From Subway Sue"
PERFORMER "Pavlov«s Dog"
INDEX 01 18:16:45
TRACK 07 AUDIO
TITLE "Episode"
PERFORMER "Pavlov«s Dog"
INDEX 01 22:43:73
TRACK 08 AUDIO
TITLE "Preludin"
PERFORMER "Pavlov«s Dog"
INDEX 01 26:47:72
TRACK 09 AUDIO
TITLE "Of Once And Future Kings"
PERFORMER "Pavlov«s Dog"
INDEX 01 28:26:55


Spectrum
Image


Немного биографии (взято отсюда)
В самом начале команда называлась ''High on a Small Hill'' и состояла из Дэвида Суркампа (гитара,вокал), Джеффа Бенсона (гитара, вокал), Рика Стоктона (бас, вокал) и Тома Келлера (ударные). После вереницы замен в составе группа получила название ''Pavlov's dog''.

Ко времени записи дебютного альбома в ее состав входили: вокалист Дэвид Суркамп, Дуг Рэйбон (меллотрон, флейта), басист Рик Стоктон, клавишник Дэвид Хамилтон, гитарист Стив Скорфина, ударник Майк Сэфрон и виолончелист Зигфрид Кэрвер. Майк Сэфрон, один из основных композиторов группы, начал свою карьеру перкуссиониста в 15 лет у Элберта Кинга, затем работал у Чака Берри и Бо Диддли. Кроме того, в работе над первым диском ''Pavlov's Dog'' принимало участие и несколько приглашенных музыкантов.

Визитной карточкой ансамбля стал вокалист Дэвид Суркамп: его уникальный голос и умелое использование фальцета позволяли моментально отличать ''Pavlov's Dog'' от других групп. Первый альбом, Pampered menial, вышедший в 1975 году содержал явный хит ''Juliа'' и отлично продавался.

Музыкальное сопровождение вокала в значительной степени было вдохновлено классической музыкой, в нем комбинировались традиционные роковые инструменты с оригинальной скрипкой Кэрвера и ставшим к тому времени уже привычным в роке меллотроном. Пластинка достаточно быстро стала ''платиновой'' и получила хорошие отклики даже в британской прессе.

В записи второго альбома, At the Sound of the Bell, состоявшего из девяти треков, уже не приняли участия Кэрвер и Сэфрон. Зато в группе появился ритм-гитарист Томас Никесон. В записи также участвовали скрипач Гевин Райт, мужской хор, саксофонисты Майкл Брекер и Энди Маккей, Майк

Эбини и Джордж Герич (оба - орган), а также Пол Престопино (мандолина). Кроме того, в создании второго релиза ''Pavlov's Dog'' приняла участие такая легендарная личность, как ударник Билл Бруфорд (также Yes, King Crimson).

Тем не менее, ''At the Sound of the Bell'' уже не дотянул до ''платины'', хотя ''золото'' завоевал. Несомненно, это более коммерческая и помпезная работа, нежели дебютный диск. Однако такие композиции, как ''Try to hang on'' и ''Did you see him cry'' были встречены в арт-роковой тусовке весьма благосклонно.

Как бы то ни было, крупный лейбл ''CBS Records'' отказался от группы и она перешла под крыло маленькой компании ''TRC Records''. В группу приняли нового ударника Кирка Саркисяна.

Выпущенный в 1977 году альбом Third оказался самым слабым в истории группы: хотя музыка была неплоха сама по себе, но от былого присутствия прогрессива в ней осталась лишь призрачная тень. После выхода этого диска ''Pavlov's Dog'' надолго замолчали.

В 1990 году Суркамп и Рэйбон решили возродить команду. Каково же было удивление поклонников, когда в 1991 году коллектив выпустил очень неплохую работу, Lost in America. Группа во многом вернулась к звучанию 1976 года, разве что саксофона стало еще больше. Тем не менее, даже относительный успех этой работы не заставил музыкантов вновь вернуться к регулярной студийной работе.

В середине 90-х Майк Сэфрон организовал группу ''Pavlov's Dog 2000'', в которой он оказался единственным членом оригинального состава ''Pavlov's Dog'', и выступал ныне не только как ударник, но и как вокалист. Группа довольно много и не без успеха играла по местным клубам.

В 2000 году этот коллектив выпустил диск ''End of the world'', содержащий переработанный старый материал и несколько новых песен.


http://www.ifolder.ru/14443800
http://www.ifolder.ru/14443801
http://www.ifolder.ru/14443802

Отличный альбомище! :true: За диск большое спасибо Анатолию the roxxx Даже не ожидал, что мне так понравится!


Top
 Profile E-mail  
 
 
PostPosted: 13 Oct 2009 
Power Metal Maniac
User avatar
Joined: 09 Aug 2008
Posts: 7238
Lоcаtion: Москва
Age: 42
Name: Егор
:thanx: хороший арт не грех и скачать

_________________
Long Live Metal!


Top
 Profile  
 
 
PostPosted: 13 Oct 2009 
Работнечег
User avatar
Joined: 28 Aug 2007
Posts: 6363
Lоcаtion: г. Москва
Age: 31
Name: Дима
Может это и не арт)Я не особо разбираюсь.Увидел где-то и написал, но музыка очень приятная :true:


Top
 Profile E-mail  
 
Display posts from previous:  Sort by  
Post new topic Reply to topic  [ 3 posts ] 

All times are UTC + 3 hours


Who is online

Users browsing this forum: No registered users and 1 guest


You cannot post new topics in this forum
You cannot reply to topics in this forum
You cannot edit your posts in this forum
You cannot delete your posts in this forum
You cannot post attachments in this forum

Search for:
Яндекс.Метрика
Powered by phpBB © 2000, 2002, 2005, 2007 phpBB Group