\m/ 80's metal \m/

Информационно-аналитический форум "80 см пыли" (In Search We Trust) "У нас никто никуда не спешит"
Me For You - http://me-4u.com
It is currently 26 Oct 2020

All times are UTC + 3 hours

Spoiler
Chat - temporary registration for foreign users (please leave your application here)







Post new topic Reply to topic  [ 10 posts ] 
Author Message
 
PostPosted: 13 Oct 2009 
Генеральный thrasher
User avatar
Joined: 03 Oct 2008
Posts: 3751
Lоcаtion: Ханты-Мансийский АО
Age: 45
Name: Сергей
Image

Album: Picture/Heavy Metal Ears
Country: Netherlands
Style: Traditional Metal
Format: ape+cue+log
Size: 490Mb

Line-Up:
Ronald Van Prooijen - vocals
Jan Bechtum - guitars
Rinus Vreugdenhill - bass
Laurens "Bakkie" Bakker - drums


Tracklist:
1.Heavy Metal Ears
2.Spend the Night with You
3.Unemployed
4.I'm Just a Simple Man
5.Funky Town
6.Out of Time
7.Night Tiger
8.No No No
9.Rock'n'Roll / Under Your Spell
10.Dirty street fighter
11.Cou can go
12.Bombers
13.No more
14.One way street
15.You're a fool
16.Get back or you fall
17.Rockin' in your brain
18.He's a player
19.Fear

Cue
PERFORMER "Picture"
TITLE "Heavy Metal Ears - Picture 1"
FILE "Picture - Heavy Metal Ears - Picture - 1981.ape" WAVE
TRACK 01 AUDIO
TITLE "Heavy metal ears"
PERFORMER "Picture"
ISRC 000000000000
INDEX 01 00:00:00
TRACK 02 AUDIO
TITLE "Spend the night with you"
PERFORMER "Picture"
ISRC 000000000000
INDEX 00 03:00:00
INDEX 01 03:02:00
TRACK 03 AUDIO
TITLE "Unemployed"
PERFORMER "Picture"
ISRC 000000000000
INDEX 00 06:02:03
INDEX 01 06:04:03
TRACK 04 AUDIO
TITLE "I'm just a simple man"
PERFORMER "Picture"
ISRC 000000000000
INDEX 00 10:58:31
INDEX 01 11:00:31
TRACK 05 AUDIO
TITLE "Funky town"
PERFORMER "Picture"
ISRC 000000000000
INDEX 00 13:56:54
INDEX 01 13:58:54
TRACK 06 AUDIO
TITLE "Out of time"
PERFORMER "Picture"
ISRC 000000000000
INDEX 00 16:51:45
INDEX 01 16:53:45
TRACK 07 AUDIO
TITLE "Nighttiger"
PERFORMER "Picture"
ISRC 000000000000
INDEX 00 19:30:13
INDEX 01 19:32:13
TRACK 08 AUDIO
TITLE "No no no"
PERFORMER "Picture"
ISRC 000000000000
INDEX 00 22:54:62
INDEX 01 22:56:62
TRACK 09 AUDIO
TITLE "Rock & Roll / Under your spell"
PERFORMER "Picture"
ISRC 000000000000
INDEX 00 25:39:70
INDEX 01 25:41:70
TRACK 10 AUDIO
TITLE "Dirty street fighter"
PERFORMER "Picture"
ISRC 000000000000
INDEX 00 33:18:70
INDEX 01 33:20:70
TRACK 11 AUDIO
TITLE "You can go"
PERFORMER "Picture"
ISRC 000000000000
INDEX 00 36:26:10
INDEX 01 36:28:10
TRACK 12 AUDIO
TITLE "Bombers"
PERFORMER "Picture"
ISRC 000000000000
INDEX 00 40:34:44
INDEX 01 40:36:44
TRACK 13 AUDIO
TITLE "No more"
PERFORMER "Picture"
ISRC 000000000000
INDEX 00 45:01:63
INDEX 01 45:03:63
TRACK 14 AUDIO
TITLE "One way street"
PERFORMER "Picture"
ISRC 000000000000
INDEX 00 48:42:71
INDEX 01 48:44:71
TRACK 15 AUDIO
TITLE "You're a fool "
PERFORMER "Picture"
ISRC 000000000000
INDEX 00 51:39:65
INDEX 01 51:41:65
TRACK 16 AUDIO
TITLE "Get back or you fall"
PERFORMER "Picture"
ISRC 000000000000
INDEX 00 54:58:73
INDEX 01 55:00:73
TRACK 17 AUDIO
TITLE "Rockin' in your brains"
PERFORMER "Picture"
ISRC 000000000000
INDEX 00 57:54:65
INDEX 01 57:56:65
TRACK 18 AUDIO
TITLE "He's a player"
PERFORMER "Picture"
ISRC 000000000000
INDEX 00 60:50:00
INDEX 01 60:52:00
TRACK 19 AUDIO
TITLE "Fear"
PERFORMER "Picture"
ISRC 000000000000
INDEX 00 63:17:33
INDEX 01 63:19:33


Log
Отчёт EAC об извлечении, выполненном 5. августа 2007, 17:57 для диска:
Picture / Heavy Metal Ears - Picture 1

Дисковод: PLEXTOR CD-R PX-W5224A Adapter: 1 ID: 0
Режим чтения: Точный (C2: нет, Точный поток: да, Отключение кэша: нет)
Комбинированное смещение чтения/записи: 0
Экстрачтение областей Lead-in и Lead-out : Нет

Выходной формат: Внутренние WAV-операции
44.100 Гц; 16 бит; стерео

Другие параметры:
Заполнение пропущенных сэмплов тишиной : Да
Удаление блоков с тишиной в начале и конце : Нет
Установленный внешний ASPI-интерфейс


Статус диапазона и ошибки
Выбранный диапазон
Имя файла C:\Documents and Settings\Privateer\Рабочий стол\Picture - Heavy Metal Ears - Picture - 1981\Picture - Heavy Metal Ears - Picture - 1981.wav

Пиковый уровень 100.0 %
Качество диапазона 99.9 %
CRC 57635E97
Копирование... OK

Ошибок не произошло

Конец отчёта


Megaupload

glory11 asked for it...


Top
 Profile  
 
 
PostPosted: 13 Oct 2009 
Хиппей (support team)
User avatar
Joined: 30 Jul 2007
Posts: 119421
Lоcаtion: Киев (Kyiv, UA)
Age: 47
Name: Andrey
Серёга, спасибо :true:

_________________


Top
 Profile E-mail  
 
 
PostPosted: 13 Oct 2009 
Генеральный thrasher
User avatar
Joined: 03 Oct 2008
Posts: 3751
Lоcаtion: Ханты-Мансийский АО
Age: 45
Name: Сергей
Настоящий трушный хэви!Люблю такую музычку до умопомрачения...


Top
 Profile  
 
 
PostPosted: 14 Oct 2009 
Почётный металлург
User avatar
Joined: 15 Sep 2007
Posts: 4360
Lоcаtion: Хабаровск
Age: 60
Name: чуть выше
thorbeorn wrote:
Настоящий трушный хэви!Люблю такую музычку до умопомрачения

Аналогично!

_________________
Коль будешь людей ты ослами честить,
тебе человеком меж них не прослыть!
(Саади, персидский поэт, 13в.)


Top
 Profile  
 
 
PostPosted: 27 Oct 2009 
А может смените мне статус?..
Joined: 03 Jul 2009
Posts: 905
Lоcаtion: Serbia
Name: Laki
Thank you mate Great !!!!!


Top
 Profile E-mail  
 
 
PostPosted: 31 Oct 2009 
Power Metal Maniac
User avatar
Joined: 09 Aug 2008
Posts: 7238
Lоcаtion: Москва
Age: 42
Name: Егор
:thanx:
скачано

_________________
Long Live Metal!


Last edited by EG Power on 23 May 2010, edited 1 time in total.

Top
 Profile  
 
 
PostPosted: 31 Oct 2009 
HAMMER
User avatar
Joined: 16 May 2009
Posts: 5488
Lоcаtion: Тверь
Age: 47
Name: Александр
Вот тут есть Picture - Old Dogs New Tricks(2009)
http://maisemaisfree.blogspot.com/
сам не слушал еще и не качал :oops:


Top
 Profile E-mail  
 
 
PostPosted: 18 Jan 2010 
А может смените мне статус?..
User avatar
Joined: 24 Dec 2008
Posts: 661
Age: 46
Name: Дмитрий
Спасибо, ознакомлюсь.


Top
 Profile  
 
 
PostPosted: 29 Oct 2011 
спирт 100%
User avatar
Joined: 22 Sep 2008
Posts: 4594
Age: 49
Name: Саня
:true: Спасибо!


Top
 Profile  
 
 
PostPosted: 30 Oct 2011 
Хиппей (support team)
User avatar
Joined: 30 Jul 2007
Posts: 119421
Lоcаtion: Киев (Kyiv, UA)
Age: 47
Name: Andrey
Molot wrote:
Вот тут есть Picture - Old Dogs New Tricks(2009)
http://maisemaisfree.blogspot.com/
сам не слушал еще и не качал :oops:

О! Теперича это сайт, а не блог http://www.metalprudente.net :dance:

_________________


Top
 Profile E-mail  
 
Display posts from previous:  Sort by  
Post new topic Reply to topic  [ 10 posts ] 

All times are UTC + 3 hours


Who is online

Users browsing this forum: No registered users and 1 guest


You cannot post new topics in this forum
You cannot reply to topics in this forum
You cannot edit your posts in this forum
You cannot delete your posts in this forum
You cannot post attachments in this forum

Search for:
Яндекс.Метрика
Powered by phpBB © 2000, 2002, 2005, 2007 phpBB Group