\m/ 80's metal \m/

Информационно-аналитический форум "80 см пыли" (In Search We Trust) "У нас никто никуда не спешит"
Me For You - http://me-4u.com
It is currently 29 Oct 2020

All times are UTC + 3 hours

Spoiler
Chat - temporary registration for foreign users (please leave your application here)







Post new topic Reply to topic  [ 9 posts ] 
Author Message
 
PostPosted: 08 Oct 2009 
Я набрал 1000 сообщений!
User avatar
Joined: 25 Dec 2008
Posts: 1545
Age: 45
Name: Павел
Powermad-Absolute Power
Country:USA
Genre:Power/Thrash Metal
Year:1989
Format:APE+cue+log+covers
Size:281


Image

Image

cue
PERFORMER "Powermad"
TITLE "Absolute Power"
FILE "Powermad - 1989.ape" WAVE
TRACK 01 AUDIO
TITLE "Slaughterhouse"
PERFORMER "Powermad"
INDEX 01 00:00:00
TRACK 02 AUDIO
TITLE "Absolute Power"
PERFORMER "Powermad"
INDEX 00 05:22:33
INDEX 01 05:23:35
TRACK 03 AUDIO
TITLE "Nice Dreams"
PERFORMER "Powermad"
INDEX 00 09:52:53
INDEX 01 09:53:15
TRACK 04 AUDIO
TITLE "Return From Fear"
PERFORMER "Powermad"
INDEX 00 14:05:00
INDEX 01 14:05:63
TRACK 05 AUDIO
TITLE "Test The Stell (Powermad)"
PERFORMER "Powermad"
INDEX 00 17:02:70
INDEX 01 17:04:05
TRACK 06 AUDIO
TITLE "Plastic Town"
PERFORMER "Powermad"
INDEX 00 20:24:68
INDEX 01 20:24:70
TRACK 07 AUDIO
TITLE "B.N.R."
PERFORMER "Powermad"
INDEX 00 25:23:55
INDEX 01 25:24:25
TRACK 08 AUDIO
TITLE "Failsafe"
PERFORMER "Powermad"
INDEX 00 30:42:35
INDEX 01 30:43:73
TRACK 09 AUDIO
TITLE "Brainstorms"
PERFORMER "Powermad"
INDEX 00 33:59:38
INDEX 01 34:00:40
TRACK 10 AUDIO
TITLE "Final Frontier"
PERFORMER "Powermad"
INDEX 00 37:34:53
INDEX 01 37:35:53


log
EAC extraction logfile from 6. September 2006, 14:04 for CD
Powermad / Absolute Power

Used drive : SONY DVD RW DW-D56A Adapter: 1 ID: 0
Read mode : Secure with NO C2, accurate stream, disable cache
Read offset correction : 12
Overread into Lead-In and Lead-Out : No

Used output format : C:\Archivos de programa\Exact Audio Copy\MAC.EXE (Monkey's Audio Lossless Encoder)
High Lossless Compression

Other options :
Fill up missing offset samples with silence : Yes
Delete leading and trailing silent blocks : No
Native Win32 interface for Win NT & 2000


Range status and errors
Selected range
Filename C:\EAC APE\Powermad (1989) (Absolute Power)\Powermad - 1989.wav

Peak level 89.2 %
Range quality 100.0 %
CRC 6F2BDACD
Copy OK

No errors occured

End of status report


Line-up:
Vocals : Joel DuBay
Guitars : Joel DuBay
Guitars : Todd Haug
Bass : Jeff Litke
Drums : John Macaluso, Adrian Liberty


Tracklist:
1.Slaughterhouse
2.Absolute Power
3.Nice Dreams
4.Return from Fear
5.Test the Steel (Powermad)
6.Plastic Town
7.B.N.R.
8.Failsafe
9.Brainstorms
10.Final Frontier


Релиз от ferroman(MMT)

1989 Absolute Power.rar


Last edited by hawkhunter on 26 Oct 2009, edited 2 times in total.

Top
 Profile  
 
 
PostPosted: 08 Oct 2009 
Power Metal Maniac
User avatar
Joined: 09 Aug 2008
Posts: 7240
Lоcаtion: Москва
Age: 42
Name: Егор
спасибо! :thanx:

_________________
Long Live Metal!


Top
 Profile  
 
 
PostPosted: 08 Oct 2009 
HAMMER
User avatar
Joined: 16 May 2009
Posts: 5488
Lоcаtion: Тверь
Age: 47
Name: Александр
:thanx:


Top
 Profile E-mail  
 
 
PostPosted: 08 Oct 2009 
Хиппей (support team)
User avatar
Joined: 30 Jul 2007
Posts: 119447
Lоcаtion: Киев (Kyiv, UA)
Age: 47
Name: Andrey
:thanx:

_________________


Top
 Profile E-mail  
 
 
PostPosted: 26 Oct 2009 
5-speed satisfactor
User avatar
Joined: 16 Feb 2009
Posts: 3900
Lоcаtion: New York, USA
Age: 42
Name: Leonid
Почему Powermad - Powermad? Вроде как Powermad - Absolute Power.

_________________
Death rules! Metal to all who oppose!


Top
 Profile  
 
 
PostPosted: 26 Oct 2009 
Я набрал 1000 сообщений!
User avatar
Joined: 25 Dec 2008
Posts: 1545
Age: 45
Name: Павел
metaleonid wrote:
Почему Powermad - Powermad

Хде? :crazy: Ничего,бывает. :padonak:


Top
 Profile  
 
 
PostPosted: 26 Oct 2009 
Хиппей (support team)
User avatar
Joined: 30 Jul 2007
Posts: 119447
Lоcаtion: Киев (Kyiv, UA)
Age: 47
Name: Andrey
Почти 20 дней никто не замечал опечатки :crazy: Интересно, а качали хоть файл?

_________________


Top
 Profile E-mail  
 
 
PostPosted: 26 Oct 2009 
Я набрал 1000 сообщений!
User avatar
Joined: 25 Dec 2008
Posts: 1545
Age: 45
Name: Павел
6 раз качали :oops:


Top
 Profile  
 
 
PostPosted: 26 Oct 2009 
хард н хэвщик (support team)
User avatar
Joined: 02 Jun 2008
Posts: 16881
Lоcаtion: Н.Новгород
Age: 33
Name: Артем
качки , фигли тут еще сказать. :crazy: Кроме как ссылочки заветной больше ничего не замечают :crazy:


Top
 Profile  
 
Display posts from previous:  Sort by  
Post new topic Reply to topic  [ 9 posts ] 

All times are UTC + 3 hours


Who is online

Users browsing this forum: No registered users and 1 guest


You cannot post new topics in this forum
You cannot reply to topics in this forum
You cannot edit your posts in this forum
You cannot delete your posts in this forum
You cannot post attachments in this forum

Search for:
Яндекс.Метрика
Powered by phpBB © 2000, 2002, 2005, 2007 phpBB Group