\m/ 80's metal \m/

Информационно-аналитический форум "80 см пыли" (In Search We Trust) "У нас никто никуда не спешит"
Me For You - http://me-4u.com
It is currently 26 Oct 2020

All times are UTC + 3 hours

Spoiler
Chat - temporary registration for foreign users (please leave your application here)







Post new topic Reply to topic  [ 9 posts ] 
Author Message
 
PostPosted: 08 Oct 2009 
Я набрал 1000 сообщений!
User avatar
Joined: 25 Dec 2008
Posts: 1545
Age: 45
Name: Павел
Powermad-The Madness Begins...(EP)
Genre:Power/Thrash Metal
Country:USA
Year:1988
Format:APE+cue(vinyl-rip)
Size:99Mb

Image

CUE
PERFORMER "Powermad"
TITLE "The Madness Begins ..."
FILE "Powermad - The Madness Begins - 01 - Terminator.wav" WAVE
TRACK 01 AUDIO
TITLE "Terminator"
PERFORMER "Powermad"
FLAGS DCP
INDEX 01 00:00:00
FILE "Powermad - The Madness Begins - 02 - Hunter Seeker.wav" WAVE
TRACK 02 AUDIO
TITLE "Hunter Seeker"
PERFORMER "Powermad"
FLAGS DCP
INDEX 01 00:00:00
FILE "Powermad - The Madness Begins - 03 - Gimme Gimme Shock Treatment.wav" WAVE
TRACK 03 AUDIO
TITLE "Gimme Gimme Shock Treatment"
PERFORMER "Powermad"
FLAGS DCP
INDEX 01 00:00:00
FILE "Powermad - The Madness Begins - 04 - Blind Leading The Blind.wav" WAVE
TRACK 04 AUDIO
TITLE "Blind Leading The Blind"
PERFORMER "Powermad"
FLAGS DCP
INDEX 01 00:00:00


Line-up:
Vocals: Joel DuBay
Guitars: Joel DuBay
Guitars: Todd Haus
Bass: Jeff Litke
Drums: Adrain Liberty


Tracklist:
1.Terminator
2.Hunter Seeker
3.Gimme Gimme Shock Treatment (Ramones cover)
4.Blind Leading the Blind


Релиз от defecation(MMT)

Powermad.[1988].[EP].The.Madness.Begins.[VINYL-APE].rar


Top
 Profile  
 
 
PostPosted: 08 Oct 2009 
Хиппей (support team)
User avatar
Joined: 30 Jul 2007
Posts: 119421
Lоcаtion: Киев (Kyiv, UA)
Age: 47
Name: Andrey
:true:

_________________


Top
 Profile E-mail  
 
 
PostPosted: 08 Oct 2009 
Power Metal Maniac
User avatar
Joined: 09 Aug 2008
Posts: 7238
Lоcаtion: Москва
Age: 42
Name: Егор
:true: :dance: :thanx:

_________________
Long Live Metal!


Top
 Profile  
 
 
PostPosted: 08 Oct 2009 
HAMMER
User avatar
Joined: 16 May 2009
Posts: 5488
Lоcаtion: Тверь
Age: 47
Name: Александр
Спасибо :true:


Top
 Profile E-mail  
 
 
PostPosted: 08 Oct 2009 
Пионэръ
Joined: 07 Apr 2009
Posts: 31
Lоcаtion: Deutschland
Age: 57
Name: Eric
yammi.thx


Top
 Profile  
 
 
PostPosted: 26 Oct 2009 
5-speed satisfactor
User avatar
Joined: 16 Feb 2009
Posts: 3900
Lоcаtion: New York, USA
Age: 42
Name: Leonid
С винила. У меня родной CD имеется!!! Залить?

_________________
Death rules! Metal to all who oppose!


Top
 Profile  
 
 
PostPosted: 26 Oct 2009 
Power Metal Maniac
User avatar
Joined: 09 Aug 2008
Posts: 7238
Lоcаtion: Москва
Age: 42
Name: Егор
metaleonid
да, пожалуйста!

_________________
Long Live Metal!


Top
 Profile  
 
 
PostPosted: 26 Oct 2009 
5-speed satisfactor
User avatar
Joined: 16 Feb 2009
Posts: 3900
Lоcаtion: New York, USA
Age: 42
Name: Leonid
Вот:

http://www.megaupload.com/?d=VYTBA8YQ

_________________
Death rules! Metal to all who oppose!


Top
 Profile  
 
 
PostPosted: 26 Oct 2009 
А может смените мне статус?..
User avatar
Joined: 24 Dec 2008
Posts: 661
Age: 46
Name: Дмитрий
Спасибо! :thanx:


Top
 Profile  
 
Display posts from previous:  Sort by  
Post new topic Reply to topic  [ 9 posts ] 

All times are UTC + 3 hours


Who is online

Users browsing this forum: No registered users and 1 guest


You cannot post new topics in this forum
You cannot reply to topics in this forum
You cannot edit your posts in this forum
You cannot delete your posts in this forum
You cannot post attachments in this forum

Search for:
Яндекс.Метрика
Powered by phpBB © 2000, 2002, 2005, 2007 phpBB Group