\m/ 80's metal \m/

Информационно-аналитический форум "80 см пыли" (In Search We Trust) "У нас никто никуда не спешит"
Me For You - http://me-4u.com
It is currently 26 Oct 2020

All times are UTC + 3 hours

Spoiler
Chat - temporary registration for foreign users (please leave your application here)







Post new topic Reply to topic  [ 20 posts ] 
Author Message
 
PostPosted: 03 Nov 2018 
Я набрал 1000 сообщений!
Joined: 12 Dec 2008
Posts: 1085
Lоcаtion: BULGARIA
Age: 42
Name: DIMITЪR
Image

Year:1991
Genre:Hard 'n' Heavy
Country:USA

Trasklist:
1. Run With the Pack
2. Call of the Wild
3. Street Fighter
4. Peace of Mind
5. Sides
6. Restless Hunger
7. All I Need
8. Brightest Star
9. Kick it Out

Кто скачал отсюда споделите плийс, 5 дня никакой сийдов :cry: :cry: :cry:
https://rutracker.org/forum/viewtopic.php?t=4324099


Top
 Profile  
 
 
PostPosted: 04 Nov 2018 
Хиппей (support team)
User avatar
Joined: 30 Jul 2007
Posts: 119421
Lоcаtion: Киев (Kyiv, UA)
Age: 47
Name: Andrey
5 дней. 5 дней.. Бывает годами нет сидов.
Ща скачаю.

_________________


Top
 Profile E-mail  
 
 
PostPosted: 04 Nov 2018 
Хиппей (support team)
User avatar
Joined: 30 Jul 2007
Posts: 119421
Lоcаtion: Киев (Kyiv, UA)
Age: 47
Name: Andrey
cryptors wrote:
5 дня никакой сийдов

А чего у меня только 2?

Image

Понимаешь, Димитарчик, не все в СССР работают по выходным :kro:

_________________


Top
 Profile E-mail  
 
 
PostPosted: 04 Nov 2018 
Генеральный thrasher
User avatar
Joined: 03 Oct 2008
Posts: 3751
Lоcаtion: Ханты-Мансийский АО
Age: 45
Name: Сергей
Раздаю...


Top
 Profile  
 
 
PostPosted: 04 Nov 2018 
Хиппей (support team)
User avatar
Joined: 30 Jul 2007
Posts: 119421
Lоcаtion: Киев (Kyiv, UA)
Age: 47
Name: Andrey
Принято. Серёг, спасибо :thanx: :thanx: :thanx:

_________________


Top
 Profile E-mail  
 
 
PostPosted: 04 Nov 2018 
Хиппей (support team)
User avatar
Joined: 30 Jul 2007
Posts: 119421
Lоcаtion: Киев (Kyiv, UA)
Age: 47
Name: Andrey
Image

_________________


Top
 Profile E-mail  
 
 
PostPosted: 04 Nov 2018 
Генеральный thrasher
User avatar
Joined: 03 Oct 2008
Posts: 3751
Lоcаtion: Ханты-Мансийский АО
Age: 45
Name: Сергей
Андрюх,я уже 712 метров отдал. Неужто не докачал? :shok:


Top
 Profile  
 
 
PostPosted: 04 Nov 2018 
Хиппей (support team)
User avatar
Joined: 30 Jul 2007
Posts: 119421
Lоcаtion: Киев (Kyiv, UA)
Age: 47
Name: Andrey
Серёг, докачал сразу. Это я днём включил комп, сразу заскринил. Ща пришёл домой - скачано давно :kro:

_________________


Top
 Profile E-mail  
 
 
PostPosted: 04 Nov 2018 
Хиппей (support team)
User avatar
Joined: 30 Jul 2007
Posts: 119421
Lоcаtion: Киев (Kyiv, UA)
Age: 47
Name: Andrey
Переливать пока сюда не буду. Подожду от Димитира ответа про 5 суток.

_________________


Top
 Profile E-mail  
 
 
PostPosted: 05 Nov 2018 
Хиппей (support team)
User avatar
Joined: 30 Jul 2007
Posts: 119421
Lоcаtion: Киев (Kyiv, UA)
Age: 47
Name: Andrey
Альбом оказался обычным-привычным молодёжным американским хард-роком :pardon:

Image
Image

6+/10

mirror: Uloz l Drop l Narod l M-Cloud

log
Exact Audio Copy V0.99 prebeta 5 from 4. May 2009

EAC extraction logfile from 8. July 2011, 16:14

Prophet / Recycled

Used drive : TSSTcorpCDDVDW SH-S223Q Adapter: 1 ID: 1

Read mode : Secure
Utilize accurate stream : Yes
Defeat audio cache : Yes
Make use of C2 pointers : No

Read offset correction : 6
Overread into Lead-In and Lead-Out : No
Fill up missing offset samples with silence : Yes
Delete leading and trailing silent blocks : No
Null samples used in CRC calculations : Yes
Used interface : Installed external ASPI interface
Gap handling : Appended to previous track

Used output format : User Defined Encoder
Selected bitrate : 320 kBit/s
Quality : High
Add ID3 tag : No
Command line compressor : C:\Program Files (x86)\Exact Audio Copy\FLAC\flac.exe
Additional command line options : --best --picture="C:\FLAC\folder.jpg" -P 4096 -V -T "artist=%a" -T "title=%t" -T "album=%g" -T "tracknumber=%n" %s


TOC of the extracted CD

Track | Start | Length | Start sector | End sector
---------------------------------------------------------
1 | 0:00.00 | 4:06.30 | 0 | 18479
2 | 4:06.30 | 4:47.47 | 18480 | 40051
3 | 8:54.02 | 4:31.70 | 40052 | 60446
4 | 13:25.72 | 4:27.18 | 60447 | 80489
5 | 17:53.15 | 3:00.17 | 80490 | 94006
6 | 20:53.32 | 4:23.05 | 94007 | 113736
7 | 25:16.37 | 4:32.60 | 113737 | 134196
8 | 29:49.22 | 3:47.70 | 134197 | 151291
9 | 33:37.17 | 4:49.63 | 151292 | 173029


Track 1

Filename C:\FLAC\Prophet\Recycled\01 - Run With The Pack.wav

Pre-gap length 0:00:02.00

Peak level 81.0 %
Track quality 99.9 %
Test CRC EEDCDA7F
Copy CRC EEDCDA7F
Track not present in AccurateRip database
Copy OK

Track 2

Filename C:\FLAC\Prophet\Recycled\02 - Call Of The Wild.wav

Peak level 88.4 %
Track quality 100.0 %
Test CRC 927D12C4
Copy CRC 927D12C4
Track not present in AccurateRip database
Copy OK

Track 3

Filename C:\FLAC\Prophet\Recycled\03 - Street Fighter.wav

Peak level 85.7 %
Track quality 100.0 %
Test CRC 9E2271DF
Copy CRC 9E2271DF
Track not present in AccurateRip database
Copy OK

Track 4

Filename C:\FLAC\Prophet\Recycled\04 - Peace Of Mind.wav

Pre-gap length 0:00:01.80

Peak level 85.5 %
Track quality 100.0 %
Test CRC D7E57872
Copy CRC D7E57872
Track not present in AccurateRip database
Copy OK

Track 5

Filename C:\FLAC\Prophet\Recycled\05 - Sides.wav

Pre-gap length 0:00:00.46

Peak level 100.0 %
Track quality 100.0 %
Test CRC 604F0EC8
Copy CRC 604F0EC8
Track not present in AccurateRip database
Copy OK

Track 6

Filename C:\FLAC\Prophet\Recycled\06 - Restless Hunger.wav

Pre-gap length 0:00:01.53

Peak level 82.6 %
Track quality 100.0 %
Test CRC 921BDB6C
Copy CRC 921BDB6C
Track not present in AccurateRip database
Copy OK

Track 7

Filename C:\FLAC\Prophet\Recycled\07 - All I Need.wav

Peak level 93.1 %
Track quality 100.0 %
Test CRC FB80C08F
Copy CRC FB80C08F
Track not present in AccurateRip database
Copy OK

Track 8

Filename C:\FLAC\Prophet\Recycled\08 - Brightest Star.wav

Pre-gap length 0:00:00.53

Peak level 79.3 %
Track quality 100.0 %
Test CRC 795E811B
Copy CRC 795E811B
Track not present in AccurateRip database
Copy OK

Track 9

Filename C:\FLAC\Prophet\Recycled\09 - Kick It Out.wav

Pre-gap length 0:00:00.53

Peak level 83.7 %
Track quality 100.0 %
Test CRC EA8A609C
Copy CRC EA8A609C
Track not present in AccurateRip database
Copy OK


None of the tracks are present in the AccurateRip database

No errors occurred

End of status report

cue
REM DISCID 74090309
REM COMMENT "ExactAudioCopy v0.99pb5"
PERFORMER "Prophet"
TITLE "Recycled"
FILE "01 - Run With The Pack.wav" WAVE
TRACK 01 AUDIO
TITLE "Run With The Pack"
PERFORMER "Prophet"
INDEX 01 00:00:00
FILE "02 - Call Of The Wild.wav" WAVE
TRACK 02 AUDIO
TITLE "Call Of The Wild"
PERFORMER "Prophet"
INDEX 01 00:00:00
FILE "03 - Street Fighter.wav" WAVE
TRACK 03 AUDIO
TITLE "Street Fighter"
PERFORMER "Prophet"
INDEX 01 00:00:00
TRACK 04 AUDIO
TITLE "Peace Of Mind"
PERFORMER "Prophet"
INDEX 00 04:30:10
FILE "04 - Peace Of Mind.wav" WAVE
INDEX 01 00:00:00
TRACK 05 AUDIO
TITLE "Sides"
PERFORMER "Prophet"
INDEX 00 04:26:58
FILE "05 - Sides.wav" WAVE
INDEX 01 00:00:00
TRACK 06 AUDIO
TITLE "Restless Hunger"
PERFORMER "Prophet"
INDEX 00 02:58:52
FILE "06 - Restless Hunger.wav" WAVE
INDEX 01 00:00:00
FILE "07 - All I Need.wav" WAVE
TRACK 07 AUDIO
TITLE "All I Need"
PERFORMER "Prophet"
INDEX 01 00:00:00
TRACK 08 AUDIO
TITLE "Brightest Star"
PERFORMER "Prophet"
INDEX 00 04:32:20
FILE "08 - Brightest Star.wav" WAVE
INDEX 01 00:00:00
TRACK 09 AUDIO
TITLE "Kick It Out"
PERFORMER "Prophet"
INDEX 00 03:47:30
FILE "09 - Kick It Out.wav" WAVE
INDEX 01 00:00:00

_________________


Top
 Profile E-mail  
 
 
PostPosted: 05 Nov 2018 
А может смените мне статус?..
Joined: 03 Jul 2009
Posts: 905
Lоcаtion: Serbia
Name: Laki
:thanx:


Top
 Profile E-mail  
 
 
PostPosted: 05 Nov 2018 
Хиппей (support team)
User avatar
Joined: 30 Jul 2007
Posts: 119421
Lоcаtion: Киев (Kyiv, UA)
Age: 47
Name: Andrey
У меня три-четыре вопроса:
1. cryptors, почему ты такой презерватив?
Image Image
И ещё, учитывая то, что на страничку Фэйсбука ты в выходные заходил чуть-ли не ежечасно. А сюда шо, некогда было глянуть и отписаться о том, на хрена ты этот голимый запрос ЗДЕСЬ сделал?
2. thorbeorn, Серёга, спасибо ещё раз за сидировние и моментальное закрытие этого беспонтового запроса :thanx: И вопрос - нафига ты хранишь у себя подобную попсню? :scratch:
3. Иногда некоторые не понимают, почему модеры на Рутрекере какие-то злые, раздражённые или как и я, вечно чем-то недовольны?
Так вот вам живой пример: :arrow: https://rutracker.org/forum/viewtopic.php?t=4324099
И вопрос - почему автора раздачи сразу не оформил всё по шаблонам и уже 5 лет как не удосужился ответить на вопрос модератора?
Image
4. Кто всё же переделал куй, убрал лишние файлы и навёл порядок в раздаче и первом сообщении?
5. Зачем такие раздачи на том ресурсе вообще нужны, если автор их броет, как только оформил?

_________________


Top
 Profile E-mail  
 
 
PostPosted: 05 Nov 2018 
Хиппей (support team)
User avatar
Joined: 30 Jul 2007
Posts: 119421
Lоcаtion: Киев (Kyiv, UA)
Age: 47
Name: Andrey
Запрос переносится в "Бухту".

_________________


Top
 Profile E-mail  
 
 
PostPosted: 05 Nov 2018 
Генеральный thrasher
User avatar
Joined: 03 Oct 2008
Posts: 3751
Lоcаtion: Ханты-Мансийский АО
Age: 45
Name: Сергей
thorbeorn, Серёга, спасибо ещё раз за сидировние и моментальное закрытие этого беспонтового запроса :thanx: И вопрос - нафига ты хранишь у себя подобную попсню? :scratch:


Эта попсня сохранилась у меня на одном из жёстких дисков...На данном этапе жизни ни качать ни хранить такое я бы не стал.


Top
 Profile  
 
 
PostPosted: 05 Nov 2018 
Я набрал 1000 сообщений!
Joined: 12 Dec 2008
Posts: 1085
Lоcаtion: BULGARIA
Age: 42
Name: DIMITЪR
У меня три-четыре вопроса:
1.Image Image
И ещё, учитывая то, что на страничку Фэйсбука ты в выходные заходил чуть-ли не ежечасно. А сюда шо, некогда было глянуть и отписаться о том, на хрена ты этот голимый запрос ЗДЕСЬ сделал?


Не вижу в чем твой проблем, не будь злым Скатърбрейнчик :esel:


Top
 Profile  
 
 
PostPosted: 05 Nov 2018 
Хиппей (support team)
User avatar
Joined: 30 Jul 2007
Posts: 119421
Lоcаtion: Киев (Kyiv, UA)
Age: 47
Name: Andrey
Не, Димитар, это у тебя твой проблем :cow:

_________________


Top
 Profile E-mail  
 
 
PostPosted: 05 Nov 2018 
Хиппей (support team)
User avatar
Joined: 30 Jul 2007
Posts: 119421
Lоcаtion: Киев (Kyiv, UA)
Age: 47
Name: Andrey
thorbeorn, Серёга, спасибо ещё раз за сидировние и моментальное закрытие этого беспонтового запроса :thanx: И вопрос - нафига ты хранишь у себя подобную попсню? :scratch:


Эта попсня сохранилась у меня на одном из жёстких дисков...На данном этапе жизни ни качать ни хранить такое я бы не стал.

И ещё раз благодарю, что перерасшарил это :thanx: :thanx: :thanx:

_________________


Top
 Profile E-mail  
 
 
PostPosted: 05 Nov 2018 
консэрваторъ
User avatar
Joined: 11 Aug 2007
Posts: 17661
Lоcаtion: Псков
Age: 46
Name: Сергей
Не будь злым, СкатертьбрайнчеГ... :pardon:

_________________
THRASH 'EM ALL


Top
 Profile E-mail  
 
 
PostPosted: 05 Nov 2018 
Я набрал 1000 сообщений!
Joined: 12 Dec 2008
Posts: 1085
Lоcаtion: BULGARIA
Age: 42
Name: DIMITЪR
Раздаю...

Спасибачка!!!!
Image


Top
 Profile  
 
 
PostPosted: 05 Nov 2018 
Хиппей (support team)
User avatar
Joined: 30 Jul 2007
Posts: 119421
Lоcаtion: Киев (Kyiv, UA)
Age: 47
Name: Andrey
Для добрых просьб, касающихся скачать или перекачать любой файл, у нас есть бо0ольшая и добрая тема :arrow: viewtopic.php?f=21&t=4939 :cow:

_________________


Top
 Profile E-mail  
 
Display posts from previous:  Sort by  
Post new topic Reply to topic  [ 20 posts ] 

All times are UTC + 3 hours


Who is online

Users browsing this forum: No registered users and 1 guest


You cannot post new topics in this forum
You cannot reply to topics in this forum
You cannot edit your posts in this forum
You cannot delete your posts in this forum
You cannot post attachments in this forum

Search for:
Яндекс.Метрика
Powered by phpBB © 2000, 2002, 2005, 2007 phpBB Group