\m/ 80's metal \m/

Информационно-аналитический форум "80 см пыли" (In Search We Trust) "У нас никто никуда не спешит"
Me For You - http://me-4u.com
It is currently 25 Oct 2020

All times are UTC + 3 hours

Spoiler
Chat - temporary registration for foreign users (please leave your application here)







Post new topic Reply to topic  [ 9 posts ] 
Author Message
 
PostPosted: 12 Sep 2016 
Partisanen - nicht kapitulieren!!
User avatar
Joined: 25 Dec 2011
Posts: 7537
Lоcаtion: партизанские леса
Age: 48
Name: Владимир
о как, у них новый албум вышел, оказывается... :scratch:
у RD лось лежит

Palace — Master Of The Universe (2016) [flac]


Image Image

Tracklist:

Master Of The Universe
Cool Runnin'
Man Behind The Gun
Part Of Me
No Exit
Matter In Hand
Path To Light
Rules Of The Game
She Said It's Over
Stranger's Eyes
Young/Wild/Free

Image Image

iFolder l M-Cloud

log
Exact Audio Copy V1.1 from 23. June 2015

EAC extraction logfile from 10. September 2016, 8:40

Palace / Master Of The Universe

Used drive : PIONEER BD-RW BDR-209D Adapter: 0 ID: 5

Read mode : Secure
Utilize accurate stream : Yes
Defeat audio cache : Yes
Make use of C2 pointers : No

Read offset correction : 667
Overread into Lead-In and Lead-Out : No
Fill up missing offset samples with silence : Yes
Delete leading and trailing silent blocks : No
Null samples used in CRC calculations : Yes
Used interface : Installed external ASPI interface

Used output format : User Defined Encoder
Selected bitrate : 768 kBit/s
Quality : High
Add ID3 tag : No
Command line compressor : C:\Program Files (x86)\Exact Audio Copy\FLAC\FLAC.EXE
Additional command line options : -6 -V -T "ARTIST=%artist%" -T "TITLE=%title%" -T "ALBUM=%albumtitle%" -T "DATE=%year%" -T "TRACKNUMBER=%tracknr%" -T "GENRE=%genre%" -T "COMMENT=%comment%" -T "BAND=%albuminterpret%" -T "ALBUMARTIST=%albuminterpret%" -T "COMPOSER=%composer%" %haslyrics%--tag-from-file=LYRICS="%lyricsfile%"%haslyrics% -T "DISCNUMBER=%cdnumber%" -T "TOTALDISCS=%totalcds%" -T "TOTALTRACKS=%numtracks%" %hascover%--picture="%coverfile%"%hascover% %source% -o %dest%


TOC of the extracted CD

Track | Start | Length | Start sector | End sector
---------------------------------------------------------
1 | 0:00.00 | 4:43.21 | 0 | 21245
2 | 4:43.21 | 3:57.21 | 21246 | 39041
3 | 8:40.42 | 4:45.24 | 39042 | 60440
4 | 13:25.66 | 4:02.65 | 60441 | 78655
5 | 17:28.56 | 4:19.37 | 78656 | 98117
6 | 21:48.18 | 4:33.66 | 98118 | 118658
7 | 26:22.09 | 3:44.26 | 118659 | 135484
8 | 30:06.35 | 4:07.46 | 135485 | 154055
9 | 34:14.06 | 4:31.57 | 154056 | 174437
10 | 38:45.63 | 3:52.43 | 174438 | 191880
11 | 42:38.31 | 3:40.36 | 191881 | 208416


Range status and errors

Selected range

Filename E:\MUSIC\Palace - Master Of The Universe.wav

Peak level 99.8 %
Extraction speed 7.6 X
Range quality 100.0 %
Test CRC EE32A0E5
Copy CRC EE32A0E5
Copy OK

No errors occurred


AccurateRip summary

Track 1 not present in database
Track 2 not present in database
Track 3 not present in database
Track 4 not present in database
Track 5 not present in database
Track 6 not present in database
Track 7 not present in database
Track 8 not present in database
Track 9 not present in database
Track 10 not present in database
Track 11 not present in database

None of the tracks are present in the AccurateRip database

End of status report

==== Log checksum FDD7AE6A76C98233276482E7B1AE2CA886B50D0E2ED6EE1D566DA987E06E1D44 ====

cue
REM GENRE AOR
REM DATE 2016
REM DISCID 7F0ADA0B
REM COMMENT "ExactAudioCopy v1.1"
PERFORMER "Palace"
TITLE "Master Of The Universe"
FILE "Palace - Master Of The Universe.flac" WAVE
TRACK 01 AUDIO
TITLE "Master Of The Universe"
PERFORMER "Palace"
INDEX 01 00:00:00
TRACK 02 AUDIO
TITLE "Cool Runnin'"
PERFORMER "Palace"
INDEX 01 04:43:21
TRACK 03 AUDIO
TITLE "Man Behind The Gun"
PERFORMER "Palace"
INDEX 01 08:40:42
TRACK 04 AUDIO
TITLE "Part Of Me"
PERFORMER "Palace"
INDEX 01 13:25:66
TRACK 05 AUDIO
TITLE "No Exit"
PERFORMER "Palace"
INDEX 01 17:28:56
TRACK 06 AUDIO
TITLE "Matter In Hand"
PERFORMER "Palace"
INDEX 01 21:48:18
TRACK 07 AUDIO
TITLE "Path To Light"
PERFORMER "Palace"
INDEX 01 26:22:09
TRACK 08 AUDIO
TITLE "Rules Of The Game"
PERFORMER "Palace"
INDEX 01 30:06:35
TRACK 09 AUDIO
TITLE "She Said It's Over"
PERFORMER "Palace"
INDEX 01 34:14:06
TRACK 10 AUDIO
TITLE "Stranger's Eyes"
PERFORMER "Palace"
INDEX 01 38:45:63
TRACK 11 AUDIO
TITLE "Young, Wild, Free"
PERFORMER "Palace"
INDEX 01 42:38:31




Image Image Image



Image Image Image

_________________
One more beer and Heavy Metal and I'm just fine!
старовер, куле... слово "блин" - до сих пор через Ъ говорю


Last edited by Scatterbrain on 13 Sep 2016, edited 3 times in total.
Создана тема, добавлены ссыки


Top
 Profile E-mail  
 
 
PostPosted: 12 Sep 2016 
Рарник и трушник
User avatar
Joined: 25 Dec 2009
Posts: 9215
Lоcаtion: Москва
Age: 55
Name: Виталий
Андрушко! Срочно качай и рецензию! :lob: Такое пропустить я не мохгу! :lob:


Top
 Profile  
 
 
PostPosted: 12 Sep 2016 
Хиппей (support team)
User avatar
Joined: 30 Jul 2007
Posts: 119421
Lоcаtion: Киев (Kyiv, UA)
Age: 47
Name: Andrey
Тьху.. Понесло их :dash:

Спасибо, Володь :thanx:

_________________


Top
 Profile E-mail  
 
 
PostPosted: 12 Sep 2016 
Я набрал 1000 сообщений!
Joined: 24 Oct 2009
Posts: 2409
Lоcаtion: РСФСР
Age: 57
Name: Юра
Дык.. эти Шведы. а те Немцы...

_________________
:dash: I am happy!


Top
 Profile E-mail  
 
 
PostPosted: 12 Sep 2016 
Хиппей (support team)
User avatar
Joined: 30 Jul 2007
Posts: 119421
Lоcаtion: Киев (Kyiv, UA)
Age: 47
Name: Andrey
32warlord1 wrote:
Palace — Master Of The Universe (2016)

Какой миленький... Melodic Metal :crazy:

Альбом понравился :meloman:

5/10

mirror: Narod

_________________


Top
 Profile E-mail  
 
 
PostPosted: 12 Sep 2016 
Partisanen - nicht kapitulieren!!
User avatar
Joined: 25 Dec 2011
Posts: 7537
Lоcаtion: партизанские леса
Age: 48
Name: Владимир
Дык.. эти Шведы. а те Немцы...

ух ты... ашЫпочка вышла )))

_________________
One more beer and Heavy Metal and I'm just fine!
старовер, куле... слово "блин" - до сих пор через Ъ говорю


Top
 Profile E-mail  
 
 
PostPosted: 12 Sep 2016 
Хиппей (support team)
User avatar
Joined: 30 Jul 2007
Posts: 119421
Lоcаtion: Киев (Kyiv, UA)
Age: 47
Name: Andrey
А жаль.. =)

Делим тему :pardon:

_________________


Top
 Profile E-mail  
 
 
PostPosted: 12 Sep 2016 
Хиппей (support team)
User avatar
Joined: 30 Jul 2007
Posts: 119421
Lоcаtion: Киев (Kyiv, UA)
Age: 47
Name: Andrey
Новый топик вырос отсель :arrow: viewtopic.php?f=121&t=2082

_________________


Top
 Profile E-mail  
 
 
PostPosted: 13 Sep 2016 
спирт 100%
User avatar
Joined: 22 Sep 2008
Posts: 4594
Age: 49
Name: Саня
:thanx: Спасибо!


Top
 Profile  
 
Display posts from previous:  Sort by  
Post new topic Reply to topic  [ 9 posts ] 

All times are UTC + 3 hours


Who is online

Users browsing this forum: No registered users and 1 guest


You cannot post new topics in this forum
You cannot reply to topics in this forum
You cannot edit your posts in this forum
You cannot delete your posts in this forum
You cannot post attachments in this forum

Search for:
Яндекс.Метрика
Powered by phpBB © 2000, 2002, 2005, 2007 phpBB Group