\m/ 80's metal \m/

Информационно-аналитический форум "80 см пыли" (In Search We Trust) "У нас никто никуда не спешит"
Me For You - http://me-4u.com
It is currently 29 Oct 2020

All times are UTC + 3 hours

Spoiler
Chat - temporary registration for foreign users (please leave your application here)







Post new topic Reply to topic  [ 5 posts ] 
Author Message
 
PostPosted: 23 Feb 2016 
5-speed satisfactor
User avatar
Joined: 16 Feb 2009
Posts: 3900
Lоcаtion: New York, USA
Age: 42
Name: Leonid
Image

    1. Metal Inquisition - 05:06
    2. Sex with Satan - 04:33
    3. Sodomize the Dead - 02:13
    4. Witch Hunt - 07:06
    5. Pile Driver - 04:32
    6. Human Sacrifice - 05:16
    7. Alien Rape - 08:33

    TPT: 37:19

Чтобы восстановить образ, нужно отпилитъ 11790 семплов от начала первого трека и склеитъ треки.

http://www.metal-archives.com/albums/Pi ... ion/422996

https://www.discogs.com/Piledriver-Meta ... se/4339198

Нужно дооформить. Добровольцы, пожалуйста...

Неделя...

http://we.tl/acpTyqJ9Ji

Image Image Image

log
Exact Audio Copy V0.99 prebeta 5 from 4. May 2009

EAC extraction logfile from 24. June 2014, 23:32

Piledriver / Metal Inquisition

Used drive : PLEXTOR DVDR PX-760A Adapter: 1 ID: 0

Read mode : Secure
Utilize accurate stream : Yes
Defeat audio cache : Yes
Make use of C2 pointers : Yes

Read offset correction : 30
Overread into Lead-In and Lead-Out : Yes
Fill up missing offset samples with silence : Yes
Delete leading and trailing silent blocks : No
Null samples used in CRC calculations : Yes
Used interface : Installed external ASPI interface

Used output format : Internal WAV Routines
Sample format : 44.100 Hz; 16 Bit; Stereo


TOC of the extracted CD

Track | Start | Length | Start sector | End sector
---------------------------------------------------------
1 | 0:00.00 | 5:09.10 | 0 | 23184
2 | 5:09.10 | 4:38.15 | 23185 | 44049
3 | 9:47.25 | 2:20.10 | 44050 | 54559
4 | 12:07.35 | 7:09.42 | 54560 | 86776
5 | 19:17.02 | 4:37.23 | 86777 | 107574
6 | 23:54.25 | 5:19.30 | 107575 | 131529
7 | 29:13.55 | 8:31.72 | 131530 | 169926


Range status and errors

Selected range

Filename P:\FLAC\Piledriver\Metal Inquisition\Piledriver - Metal Inquisition.wav

Peak level 100.0 %
Range quality 100.0 %
Copy CRC 0B415A04
Copy OK

No errors occurred

End of status report

------------------------------------------------------------

Exact Audio Copy V0.99 prebeta 5 from 4. May 2009

EAC extraction logfile from 24. June 2014, 23:51

Piledriver / Metal Inquisition

Used drive : PLEXTOR DVDR PX-760A Adapter: 1 ID: 0

Read mode : Secure
Utilize accurate stream : Yes
Defeat audio cache : Yes
Make use of C2 pointers : Yes

Read offset correction : -11760
Overread into Lead-In and Lead-Out : Yes
Fill up missing offset samples with silence : Yes
Delete leading and trailing silent blocks : No
Null samples used in CRC calculations : Yes
Used interface : Installed external ASPI interface
Gap handling : Appended to next track

Used output format : Internal WAV Routines
Sample format : 44.100 Hz; 16 Bit; Stereo


TOC of the extracted CD

Track | Start | Length | Start sector | End sector
---------------------------------------------------------
1 | 0:00.00 | 5:09.10 | 0 | 23184
2 | 5:09.10 | 4:38.15 | 23185 | 44049
3 | 9:47.25 | 2:20.10 | 44050 | 54559
4 | 12:07.35 | 7:09.42 | 54560 | 86776
5 | 19:17.02 | 4:37.23 | 86777 | 107574
6 | 23:54.25 | 5:19.30 | 107575 | 131529
7 | 29:13.55 | 8:31.72 | 131530 | 169926


Track 1

Filename P:\FLAC\Piledriver\Metal Inquisition\01. Metal Inquisition.wav

Pre-gap length 0:00:02.00

Missing samples
Peak level 89.7 %
Track quality 100.0 %
Copy CRC C2FA3117
Copy finished

There were errors

End of status report

------------------------------------------------------------

Exact Audio Copy V0.99 prebeta 5 from 4. May 2009

EAC extraction logfile from 24. June 2014, 23:55

Piledriver / Metal Inquisition

Used drive : PLEXTOR DVDR PX-760A Adapter: 1 ID: 0

Read mode : Secure
Utilize accurate stream : Yes
Defeat audio cache : Yes
Make use of C2 pointers : Yes

Read offset correction : 11202
Overread into Lead-In and Lead-Out : Yes
Fill up missing offset samples with silence : Yes
Delete leading and trailing silent blocks : No
Null samples used in CRC calculations : Yes
Used interface : Installed external ASPI interface
Gap handling : Appended to next track

Used output format : Internal WAV Routines
Sample format : 44.100 Hz; 16 Bit; Stereo


TOC of the extracted CD

Track | Start | Length | Start sector | End sector
---------------------------------------------------------
1 | 0:00.00 | 5:09.10 | 0 | 23184
2 | 5:09.10 | 4:38.15 | 23185 | 44049
3 | 9:47.25 | 2:20.10 | 44050 | 54559
4 | 12:07.35 | 7:09.42 | 54560 | 86776
5 | 19:17.02 | 4:37.23 | 86777 | 107574
6 | 23:54.25 | 5:19.30 | 107575 | 131529
7 | 29:13.55 | 8:31.72 | 131530 | 169926


Track 7

Filename P:\FLAC\Piledriver\Metal Inquisition\07. Alien Rape.wav

Pre-gap length 0:00:01.18

Peak level 96.8 %
Track quality 100.0 %
Copy CRC 482EAB20
Copy OK

No errors occurred

End of status report

cue
REM GENRE "Heavy Metal"
REM DATE 1984
REM DISCID 5F08D907
REM COMMENT "11790 samples before the beginning."
REM COMMENT "ExactAudioCopy v0.99pb5"
PERFORMER "Piledriver"
TITLE "Metal Inquisition"
FILE "Piledriver - Metal Inquisition.wav" WAVE
TRACK 01 AUDIO
TITLE "Metal Inquisition"
PERFORMER "Piledriver"
FLAGS PRE
INDEX 01 00:00:00
TRACK 02 AUDIO
TITLE "Sex With Satan"
PERFORMER "Piledriver"
FLAGS PRE
INDEX 00 05:08:50
INDEX 01 05:09:10
TRACK 03 AUDIO
TITLE "Sodomize The Dead"
PERFORMER "Piledriver"
FLAGS PRE
INDEX 00 09:40:15
INDEX 01 09:47:25
TRACK 04 AUDIO
TITLE "Witch Hunt"
PERFORMER "Piledriver"
FLAGS PRE
INDEX 00 12:05:47
INDEX 01 12:07:35
TRACK 05 AUDIO
TITLE "Plie Driver"
PERFORMER "Piledriver"
FLAGS PRE
INDEX 00 19:13:12
INDEX 01 19:17:02
TRACK 06 AUDIO
TITLE "Human Sacrifice"
PERFORMER "Piledriver"
FLAGS PRE
INDEX 00 23:52:50
INDEX 01 23:54:25
TRACK 07 AUDIO
TITLE "Alien Rape"
PERFORMER "Piledriver"
FLAGS PRE
INDEX 00 29:12:37
INDEX 01 29:13:55

_________________
Death rules! Metal to all who oppose!


Top
 Profile  
 
 
PostPosted: 23 Feb 2016 
Работнечег
User avatar
Joined: 28 Aug 2007
Posts: 6363
Lоcаtion: г. Москва
Age: 31
Name: Дима
:thanx:


Top
 Profile E-mail  
 
 
PostPosted: 23 Feb 2016 
10cm
User avatar
Joined: 27 Mar 2013
Posts: 78
Name: Alexander
Спасибо за первопресс! :thanx:

_________________
Ищу постеры Destruction 1987-1988 гг. :arrow: viewtopic.php?f=67&t=13346


Top
 Profile  
 
 
PostPosted: 24 Feb 2016 
Хиппей (support team)
User avatar
Joined: 30 Jul 2007
Posts: 119447
Lоcаtion: Киев (Kyiv, UA)
Age: 47
Name: Andrey
:thanx:

mirror: iFolder l Narod l M-Cloud

_________________


Top
 Profile E-mail  
 
 
PostPosted: 28 Feb 2016 
Хиппей (support team)
User avatar
Joined: 30 Jul 2007
Posts: 119447
Lоcаtion: Киев (Kyiv, UA)
Age: 47
Name: Andrey
Сколько лет прошло, а альбом всё не стареет и нравится всё больше и больше.
Почти шедевр :meloman:

8/10

_________________


Top
 Profile E-mail  
 
Display posts from previous:  Sort by  
Post new topic Reply to topic  [ 5 posts ] 

All times are UTC + 3 hours


Who is online

Users browsing this forum: No registered users and 1 guest


You cannot post new topics in this forum
You cannot reply to topics in this forum
You cannot edit your posts in this forum
You cannot delete your posts in this forum
You cannot post attachments in this forum

Search for:
Яндекс.Метрика
cron
Powered by phpBB © 2000, 2002, 2005, 2007 phpBB Group