\m/ 80's metal \m/

Информационно-аналитический форум "80 см пыли" (In Search We Trust) "У нас никто никуда не спешит"
Me For You - http://me-4u.com
It is currently 28 Oct 2020

All times are UTC + 3 hours

Spoiler
Chat - temporary registration for foreign users (please leave your application here)







Post new topic Reply to topic  [ 9 posts ] 
Author Message
 
PostPosted: 23 Dec 2015 
Генеральный thrasher
User avatar
Joined: 03 Oct 2008
Posts: 3751
Lоcаtion: Ханты-Мансийский АО
Age: 45
Name: Сергей
Image

Year:2011
Style:Thrash Metal
Country:Germany
Archive:Flac+Cue+Log+Scans
Size:271Mb
Source:my CD
Label:Aarrgh Records

Line-Up:
Guido Holstein - guitars
Eddy - bass
Ralf Winkmann - drums
Tobias Mönch - vocals

Tracklist:
01. Collateral Damage 03:16
02. God's Bitch 02:39
03. Make My Day 03:52
04. Why ? 03:28
05. Next 03:10
06. Klan of Hate 02:57
07. Deaf, Dumb, Blind 03:19
08. Psychopath 03:28
09. MTV 01:49
10. Not in My Name 02:35
11. Gravity Kills 02:56
12. Corruption 02:34

"Cue"
REM GENRE "Thrash Metal"
REM DATE 2011
REM DISCID B6086C0C
REM COMMENT "ExactAudioCopy v0.99pb5"
PERFORMER "Purify"
TITLE "Hellophile"
FILE "Purify - Hellophile.flac" WAVE
TRACK 01 AUDIO
TITLE "Collateral"
PERFORMER "Purify"
FLAGS DCP
INDEX 01 00:00:00
TRACK 02 AUDIO
TITLE "God's Bitch"
PERFORMER "Purify"
FLAGS DCP
INDEX 00 03:14:03
INDEX 01 03:15:03
TRACK 03 AUDIO
TITLE "Make My Day"
PERFORMER "Purify"
FLAGS DCP
INDEX 00 05:52:64
INDEX 01 05:53:64
TRACK 04 AUDIO
TITLE "Why ?"
PERFORMER "Purify"
FLAGS DCP
INDEX 00 09:44:06
INDEX 01 09:45:06
TRACK 05 AUDIO
TITLE "Next Time"
PERFORMER "Purify"
FLAGS DCP
INDEX 00 13:11:23
INDEX 01 13:12:23
TRACK 06 AUDIO
TITLE "Klan Of Hate"
PERFORMER "Purify"
FLAGS DCP
INDEX 00 16:21:18
INDEX 01 16:22:18
TRACK 07 AUDIO
TITLE "Def Dumb Blind"
PERFORMER "Purify"
FLAGS DCP
INDEX 00 19:17:47
INDEX 01 19:18:47
TRACK 08 AUDIO
TITLE "Psychopath"
PERFORMER "Purify"
FLAGS DCP
INDEX 00 22:36:02
INDEX 01 22:37:02
TRACK 09 AUDIO
TITLE "Mtv"
PERFORMER "Purify"
FLAGS DCP
INDEX 00 26:03:60
INDEX 01 26:04:60
TRACK 10 AUDIO
TITLE "Not In My Name"
PERFORMER "Purify"
FLAGS DCP
INDEX 00 27:52:16
INDEX 01 27:53:16
TRACK 11 AUDIO
TITLE "Gravity Kills"
PERFORMER "Purify"
FLAGS DCP
INDEX 00 30:26:48
INDEX 01 30:27:48
TRACK 12 AUDIO
TITLE "Corruption"
PERFORMER "Purify"
FLAGS DCP
INDEX 00 33:21:58
INDEX 01 33:22:58

"Log"
Exact Audio Copy V0.99 prebeta 5 from 4. May 2009

Отчёт EAC об извлечении, выполненном 10. апреля 2012, 9:40

Purify / Hellophile

Дисковод: TSSTcorpCDDVDW SH-S202N Adapter: 0 ID: 1

Режим чтения : Достоверность
Использование точного потока : Да
Отключение кэша аудио : Да
Использование указателей C2 : Нет

Коррекция смещения при чтении : 6
Способность читать области Lead-in и Lead-out : Нет
Заполнение пропущенных сэмплов тишиной : Да
Удаление блоков с тишиной в начале и конце : Нет
При вычислениях CRC использовались нулевые сэмплы : Да
Интерфейс : Встроенный Win32-интерфейс для Win NT/2000

Выходной формат : Пользовательский кодировщик
Выбранный битрейт : 768 kBit/s
Качество : Высокий
Добавление ID3-тэга : Нет
Утилита сжатия : C:\Program Files\Exact Audio Copy\FLAC\FLAC.EXE
Дополнительные параметры : -6 -V -T "ARTIST=%a" -T "TITLE=%t" -T "ALBUM=%g" -T "DATE=%y" -T "TRACKNUMBER=%n" -T "GENRE=%m" -T "COMMENT=%e" %s -o %d


TOC извлечённого CD

Трек | Старт | Длительность | Начальный сектор | Конечный сектор
---------------------------------------------------------------------
1 | 0:00.00 | 3:15.03 | 0 | 14627
2 | 3:15.03 | 2:38.61 | 14628 | 26538
3 | 5:53.64 | 3:51.17 | 26539 | 43880
4 | 9:45.06 | 3:27.17 | 43881 | 59422
5 | 13:12.23 | 3:09.70 | 59423 | 73667
6 | 16:22.18 | 2:56.29 | 73668 | 86896
7 | 19:18.47 | 3:18.30 | 86897 | 101776
8 | 22:37.02 | 3:27.58 | 101777 | 117359
9 | 26:04.60 | 1:48.31 | 117360 | 125490
10 | 27:53.16 | 2:34.32 | 125491 | 137072
11 | 30:27.48 | 2:55.10 | 137073 | 150207
12 | 33:22.58 | 2:34.00 | 150208 | 161757


Характеристики диапазона извлечения и сообщения об ошибках

Выбранный диапазон

Имя файла E:\Лоси\P\Purify - Hellophile.wav

Подозрительная позиция 0:02:09 - 0:02:10
Подозрительная позиция 0:02:13

Пиковый уровень 100.0 %
Качество диапазона 99.7 %
CRC копии 4A5ABC2B
Копирование завершено

Были ошибки


AccurateRip: сводка

Трек 1 нет в базе данных
Трек 2 нет в базе данных
Трек 3 нет в базе данных
Трек 4 нет в базе данных
Трек 5 нет в базе данных
Трек 6 нет в базе данных
Трек 7 нет в базе данных
Трек 8 нет в базе данных
Трек 9 нет в базе данных
Трек 10 нет в базе данных
Трек 11 нет в базе данных
Трек 12 нет в базе данных

Ни одного трека нет в базе AccurateRip

Конец отчёта


Hellophile

Image

Year:2013
Style:Thrash Metal
Country:Germany
Archive:Flac+Cue+Log+Scans
Size:380Mb
Source:my CD
Label:Aarrgh Records

Line-Up:
Mönch - vocals
Holzbein - guitars
Eddy - bass
Ralf Winkmann - drums

Tracklist:
01. Annihilation 03:25
02. Guiniea Pig Apocalypse 03:13
03. Hate Fuck Die 02:37
04. The Blind Eye 04:58
05. Ravager 03:44
06. My Strange Mind 04:25
07. Chainsaw Carnage 03:39
08. Bunker Buster 03:16
09. Old Men's Wrath 03:12
10. Gunslinger 03:53
11. Scenes Of War 04:07
12. Sucker 03:56
13. Purify 03:03

"Cue"
REM GENRE "Thrash Metal"
REM DATE 2013
REM DISCID B60B1C0D
REM COMMENT "ExactAudioCopy v0.99pb5"
PERFORMER "Purify"
TITLE "Sic Transit Gloria Mundi"
FILE "Purify - Sic Transit Gloria Mundi.flac" WAVE
TRACK 01 AUDIO
TITLE "Annihilation"
PERFORMER "Purify"
FLAGS DCP
INDEX 01 00:00:00
TRACK 02 AUDIO
TITLE "Guinea Pig Apocalypse"
PERFORMER "Purify"
FLAGS DCP
INDEX 00 03:23:60
INDEX 01 03:24:60
TRACK 03 AUDIO
TITLE "Hate Fuck Die"
PERFORMER "Purify"
FLAGS DCP
INDEX 00 06:35:63
INDEX 01 06:36:63
TRACK 04 AUDIO
TITLE "The Blind Eye"
PERFORMER "Purify"
FLAGS DCP
INDEX 00 09:11:73
INDEX 01 09:12:73
TRACK 05 AUDIO
TITLE "Ravager"
PERFORMER "Purify"
FLAGS DCP
INDEX 00 14:09:56
INDEX 01 14:10:56
TRACK 06 AUDIO
TITLE "My Strange Mind"
PERFORMER "Purify"
FLAGS DCP
INDEX 00 17:51:69
INDEX 01 17:53:69
TRACK 07 AUDIO
TITLE "Chainsaw Carnage"
PERFORMER "Purify"
FLAGS DCP
INDEX 00 22:17:36
INDEX 01 22:18:36
TRACK 08 AUDIO
TITLE "Bunker Buster"
PERFORMER "Purify"
FLAGS DCP
INDEX 00 25:56:36
INDEX 01 25:57:36
TRACK 09 AUDIO
TITLE "Old Men's Wrath"
PERFORMER "Purify"
FLAGS DCP
INDEX 00 29:12:45
INDEX 01 29:13:45
TRACK 10 AUDIO
TITLE "Gunslinger"
PERFORMER "Purify"
FLAGS DCP
INDEX 00 32:24:41
INDEX 01 32:25:41
TRACK 11 AUDIO
TITLE "Scenes Of War"
PERFORMER "Purify"
FLAGS DCP
INDEX 00 36:17:34
INDEX 01 36:18:34
TRACK 12 AUDIO
TITLE "Sucker"
PERFORMER "Purify"
FLAGS DCP
INDEX 00 40:24:20
INDEX 01 40:25:20
TRACK 13 AUDIO
TITLE "Purify"
PERFORMER "Purify"
FLAGS DCP
INDEX 00 44:20:05
INDEX 01 44:21:05

"Log"
Exact Audio Copy V0.99 prebeta 5 from 4. May 2009

Отчёт EAC об извлечении, выполненном 5. апреля 2014, 12:52

Purify / Sic Transit Gloria Mundi

Дисковод: MATSHITADVD-RAM UJ8A0AS Adapter: 0 ID: 1

Режим чтения : Достоверность
Использование точного потока : Да
Отключение кэша аудио : Да
Использование указателей C2 : Нет

Коррекция смещения при чтении : 102
Способность читать области Lead-in и Lead-out : Нет
Заполнение пропущенных сэмплов тишиной : Да
Удаление блоков с тишиной в начале и конце : Нет
При вычислениях CRC использовались нулевые сэмплы : Да
Интерфейс : Встроенный Win32-интерфейс для Win NT/2000

Выходной формат : Пользовательский кодировщик
Выбранный битрейт : 1024 kBit/s
Качество : Высокий
Добавление ID3-тэга : Нет
Утилита сжатия : C:\Program Files\Exact Audio Copy\FLAC\FLAC.EXE
Дополнительные параметры : -6 -V -T "ARTIST=%a" -T "TITLE=%t" -T "ALBUM=%g" -T "DATE=%y" -T "TRACKNUMBER=%n" -T "GENRE=%m" -T "COMMENT=%e" %s -o %d


TOC извлечённого CD

Трек | Старт | Длительность | Начальный сектор | Конечный сектор
---------------------------------------------------------------------
1 | 0:00.00 | 3:24.60 | 0 | 15359
2 | 3:24.60 | 3:12.03 | 15360 | 29762
3 | 6:36.63 | 2:36.10 | 29763 | 41472
4 | 9:12.73 | 4:57.58 | 41473 | 63805
5 | 14:10.56 | 3:43.13 | 63806 | 80543
6 | 17:53.69 | 4:24.42 | 80544 | 100385
7 | 22:18.36 | 3:39.00 | 100386 | 116810
8 | 25:57.36 | 3:16.09 | 116811 | 131519
9 | 29:13.45 | 3:11.71 | 131520 | 145915
10 | 32:25.41 | 3:52.68 | 145916 | 163383
11 | 36:18.34 | 4:06.61 | 163384 | 181894
12 | 40:25.20 | 3:55.60 | 181895 | 199579
13 | 44:21.05 | 3:03.03 | 199580 | 213307


Характеристики диапазона извлечения и сообщения об ошибках

Выбранный диапазон

Имя файла C:\Users\эксперт\Music\Purify - Sic Transit Gloria Mundi.wav

Пиковый уровень 94.4 %
Качество диапазона 99.9 %
CRC копии 7F225DE4
Копирование... OK

Ошибок не произошло


AccurateRip: сводка

Трек 1 нет в базе данных
Трек 2 нет в базе данных
Трек 3 нет в базе данных
Трек 4 нет в базе данных
Трек 5 нет в базе данных
Трек 6 нет в базе данных
Трек 7 нет в базе данных
Трек 8 нет в базе данных
Трек 9 нет в базе данных
Трек 10 нет в базе данных
Трек 11 нет в базе данных
Трек 12 нет в базе данных
Трек 13 нет в базе данных

Ни одного трека нет в базе AccurateRip

Конец отчёта


Sic Transit Gloria Mundi


Top
 Profile  
 
 
PostPosted: 23 Dec 2015 
Генеральный thrasher
User avatar
Joined: 03 Oct 2008
Posts: 3751
Lоcаtion: Ханты-Мансийский АО
Age: 45
Name: Сергей
На мой взгляд весьма недурной образец германского трэша...Раздаю на трэкере,пусть и тут будет. :true:


Top
 Profile  
 
 
PostPosted: 23 Dec 2015 
Alive Again
User avatar
Joined: 17 Dec 2008
Posts: 4750
Lоcаtion: Курск Воронеж Оскол
Age: 46
Name: Дмитрий
:thanx:


Top
 Profile E-mail  
 
 
PostPosted: 23 Dec 2015 
консэрваторъ
User avatar
Joined: 11 Aug 2007
Posts: 17662
Lоcаtion: Псков
Age: 46
Name: Сергей
Надо будет заслухать, спасибо... Качает мощно, чуть бы поменьше гроула... Но надо послухать альбом целиком...

Purify - Gunslinger | +

_________________
THRASH 'EM ALL


Top
 Profile E-mail  
 
 
PostPosted: 23 Dec 2015 
консэрваторъ
User avatar
Joined: 11 Aug 2007
Posts: 17662
Lоcаtion: Псков
Age: 46
Name: Сергей
Блин, ну и где теперь искать их промку?.. и демку...
| +
Image
1. Chainsaw Carnage 03:41
2. Don't Push Me Too Far 03:56

Image
1. Empty V
2. Psycho Path
3. Streets of Terror
4. Why Me

_________________
THRASH 'EM ALL


Top
 Profile E-mail  
 
 
PostPosted: 23 Dec 2015 
Прокъмитолист
User avatar
Joined: 12 Aug 2007
Posts: 6776
Lоcаtion: Санктъ-Петербуркъ
Age: 53
Name: Олекъ
утащу и второй. спасибо, Серёг :thanx:

_________________
прокъметол - это музыко, от которово есть прок (ы)


Top
 Profile  
 
 
PostPosted: 23 Dec 2015 
Генеральный thrasher
User avatar
Joined: 03 Oct 2008
Posts: 3751
Lоcаtion: Ханты-Мансийский АО
Age: 45
Name: Сергей
Второй круче на мой взгляд,Олег. :lob:


Top
 Profile  
 
 
PostPosted: 23 Dec 2015 
Генеральный thrasher
User avatar
Joined: 03 Oct 2008
Posts: 3751
Lоcаtion: Ханты-Мансийский АО
Age: 45
Name: Сергей
Блин, ну и где теперь искать их промку?.. и демку...
| +
Image
1. Chainsaw Carnage 03:41
2. Don't Push Me Too Far 03:56

Image
1. Empty V
2. Psycho Path
3. Streets of Terror
4. Why Me


Зачем оно тебе,Серёга? :shok:


Top
 Profile  
 
 
PostPosted: 23 Dec 2015 
консэрваторъ
User avatar
Joined: 11 Aug 2007
Posts: 17662
Lоcаtion: Псков
Age: 46
Name: Сергей
Для полноты наполненного... К тому же там песни есть, не вошедшие на альбом, при чём несколько...

_________________
THRASH 'EM ALL


Top
 Profile E-mail  
 
Display posts from previous:  Sort by  
Post new topic Reply to topic  [ 9 posts ] 

All times are UTC + 3 hours


Who is online

Users browsing this forum: No registered users and 2 guests


You cannot post new topics in this forum
You cannot reply to topics in this forum
You cannot edit your posts in this forum
You cannot delete your posts in this forum
You cannot post attachments in this forum

Search for:
Яндекс.Метрика
Powered by phpBB © 2000, 2002, 2005, 2007 phpBB Group