\m/ 80's metal \m/

Информационно-аналитический форум "80 см пыли" (In Search We Trust) "У нас никто никуда не спешит"
Me For You - http://me-4u.com
It is currently 26 Oct 2020

All times are UTC + 3 hours

Spoiler
Chat - temporary registration for foreign users (please leave your application here)







Post new topic Reply to topic  [ 16 posts ] 
Author Message
 
PostPosted: 19 Dec 2014 
Работнечег
User avatar
Joined: 28 Aug 2007
Posts: 6363
Lоcаtion: г. Москва
Age: 31
Name: Дима
Image

Label: Independent
Genre: Heavy Metal
Country: US
Format: Flac + Log + Cue + Covers
Size: 335 Mb

Line-Up:
Tattoo Frank - Vocals (ex-Deadly Bizarre, ex-The Altar, ex-Damien Thorne)
Pam Lewis - Bass
Doug Mirly - Drums
John DelVecchio - Guitars
Adam Armaganian - Guitars (ex-Saq)


Tracklist:
1. Our Own Individual Hell 03:39
2. Uneven Odds 03:20
3. Princess of Darkenss (My Bride of Pain) 04:54
4. When Charlotte Cries 06:07
5. Fame Has a Price 06:22
6. Sleep Deprivation 03:27
7. This One's for You 05:30
8. From A Crayon to a Pistol 04:48
9. Ahh! Fuck! 05:39
10. C.O.T.S. 08:10

LOG
Exact Audio Copy V0.99 prebeta 5 from 4. May 2009

EAC extraction logfile from 23. November 2014, 18:16

Premonition / Fame Has A Price

Used drive : PIONEER DVD-RW DVR-221 Adapter: 2 ID: 1

Read mode : Secure
Utilize accurate stream : Yes
Defeat audio cache : Yes
Make use of C2 pointers : No

Read offset correction : 6
Overread into Lead-In and Lead-Out : No
Fill up missing offset samples with silence : Yes
Delete leading and trailing silent blocks : No
Null samples used in CRC calculations : Yes
Used interface : Native Win32 interface for Win NT & 2000

Used output format : User Defined Encoder
Selected bitrate : 32 kBit/s
Quality : High
Add ID3 tag : No
Command line compressor : C:\Program Files\Exact Audio Copy\Flac\flac.exe
Additional command line options : -6 -V %s


TOC of the extracted CD

Track | Start | Length | Start sector | End sector
---------------------------------------------------------
1 | 0:00.00 | 3:39.27 | 0 | 16451
2 | 3:39.27 | 3:20.15 | 16452 | 31466
3 | 6:59.42 | 4:53.68 | 31467 | 53509
4 | 11:53.35 | 6:07.15 | 53510 | 81049
5 | 18:00.50 | 6:21.55 | 81050 | 109679
6 | 24:22.30 | 3:26.57 | 109680 | 125186
7 | 27:49.12 | 5:29.60 | 125187 | 149921
8 | 33:18.72 | 4:47.50 | 149922 | 171496
9 | 38:06.47 | 5:39.30 | 171497 | 196951
10 | 43:46.02 | 8:09.60 | 196952 | 233686


Range status and errors

Selected range

Filename D:\Музыка\Lossless\Premonition - Fame Has A Price.wav

Peak level 98.8 %
Range quality 100.0 %
Copy CRC 8735E8E1
Copy OK

No errors occurred

End of status report

CUE
REM GENRE "Heavy Metal"
REM DATE 1998
REM DISCID 6C0C2B0A
REM COMMENT "ExactAudioCopy v0.99pb5"
PERFORMER "Premonition"
TITLE "Fame Has A Price"
FILE "Premonition - Fame Has A Price.flac" WAVE
TRACK 01 AUDIO
TITLE "Our Own Individual Hell"
PERFORMER "Premonition"
FLAGS DCP
INDEX 01 00:00:00
TRACK 02 AUDIO
TITLE "Uneven Odds"
PERFORMER "Premonition"
FLAGS DCP
INDEX 01 03:39:27
TRACK 03 AUDIO
TITLE "Princess Of Darkness (My Bride Of Pain)"
PERFORMER "Premonition"
FLAGS DCP
INDEX 01 06:59:42
TRACK 04 AUDIO
TITLE "When Charlotte Cries"
PERFORMER "Premonition"
FLAGS DCP
INDEX 01 11:53:35
TRACK 05 AUDIO
TITLE "Fame Has A Price"
PERFORMER "Premonition"
FLAGS DCP
INDEX 01 18:00:50
TRACK 06 AUDIO
TITLE "Sleep Deprivation"
PERFORMER "Premonition"
FLAGS DCP
INDEX 01 24:22:30
TRACK 07 AUDIO
TITLE "This Oneґs for You"
PERFORMER "Premonition"
FLAGS DCP
INDEX 01 27:49:12
TRACK 08 AUDIO
TITLE "From A Crayon To a Pistol"
PERFORMER "Premonition"
FLAGS DCP
INDEX 01 33:18:72
TRACK 09 AUDIO
TITLE "Ahh! Fuck!!"
PERFORMER "Premonition"
FLAGS DCP
INDEX 01 38:06:47
TRACK 10 AUDIO
TITLE "C.O.T.S."
PERFORMER "Premonition"
FLAGS DCP
INDEX 01 43:46:02


FLAC

Отличный крепкий альбом, рекомендую! :true: When Charlotte Cries - отличная баллада, прослушана уже многократно :true: :true:


Top
 Profile E-mail  
 
 
PostPosted: 19 Dec 2014 
Прокъмитолист
User avatar
Joined: 12 Aug 2007
Posts: 6776
Lоcаtion: Санктъ-Петербуркъ
Age: 53
Name: Олекъ
:thanx:

_________________
прокъметол - это музыко, от которово есть прок (ы)


Top
 Profile  
 
 
PostPosted: 19 Dec 2014 
Хиппей (support team)
User avatar
Joined: 30 Jul 2007
Posts: 119421
Lоcаtion: Киев (Kyiv, UA)
Age: 47
Name: Andrey
:thanx:

Image Image Image Image Image

mirror: Narod l M-Cloud

Шо ж они все с какими-то названиями однотипными... :fingal:

_________________


Top
 Profile E-mail  
 
 
PostPosted: 20 Dec 2014 
спирт 100%
User avatar
Joined: 22 Sep 2008
Posts: 4594
Age: 49
Name: Саня
:thanx: Дима,Спасибо!


Top
 Profile  
 
 
PostPosted: 20 Dec 2014 
Генеральный thrasher
User avatar
Joined: 03 Oct 2008
Posts: 3751
Lоcаtion: Ханты-Мансийский АО
Age: 45
Name: Сергей
:thanx: :true:


Top
 Profile  
 
 
PostPosted: 20 Dec 2014 
Генеральный thrasher
User avatar
Joined: 03 Oct 2008
Posts: 3751
Lоcаtion: Ханты-Мансийский АО
Age: 45
Name: Сергей
Хороший альбомец!Чем то Manilla Road мне напомнили эти парни.


Top
 Profile  
 
 
PostPosted: 11 Jan 2015 
Хиппей (support team)
User avatar
Joined: 30 Jul 2007
Posts: 119421
Lоcаtion: Киев (Kyiv, UA)
Age: 47
Name: Andrey
Кинг Даймонд, Миднайт, Халфорд, Тим Оуэнс, иногда Мессая Марколин, Дио и... Майк Паттон + редкое использование рыка.
Вот основной перечень используемых вокальных подражаний голоса некоторого товарища
church wrote:
Tattoo Frank - Vocals (ex-Deadly Bizarre, ex-The Altar, ex-Damien Thorne)
:vic:
Альбом очень понравился. Правда не с первого захода и не весь - вторая часть послабее будет.
И как чуть выше заметил, он достаточно эпичный и мощный и действительно напоминает раннюю Манниллу Роад :meloman:

6+/10

зы. Как ни странно, но рекомендации к прослушиванию Толику, Нику и Егору. Вот так вот прям одновременно троим, угу :lloo:

_________________


Top
 Profile E-mail  
 
 
PostPosted: 11 Jan 2015 
Хиппей (support team)
User avatar
Joined: 30 Jul 2007
Posts: 119421
Lоcаtion: Киев (Kyiv, UA)
Age: 47
Name: Andrey
church wrote:
10. C.O.T.S. 08:10

Ничто иное, как кавер на Black Sabbath - Children Of The Sea.

_________________


Top
 Profile E-mail  
 
 
PostPosted: 11 Jan 2015 
Power Metal Maniac
User avatar
Joined: 09 Aug 2008
Posts: 7238
Lоcаtion: Москва
Age: 42
Name: Егор
попробую послушать :thanx:

_________________
Long Live Metal!


Top
 Profile  
 
 
PostPosted: 11 Jan 2015 
\m/ 80 см сала \m/
User avatar
Joined: 12 Mar 2012
Posts: 2599
Age: 27
Name: Nick
:thanx:

_________________
1990 AUROPHON BRAINSTORM (Germany) - lossless
1994 MAUSOLEUM CLASSIX (Belgium-Germany) - lossless
1998 VA - GRIM HARVEST - Complete Metal Massacre Volumes I-XII


Top
 Profile  
 
 
PostPosted: 11 Jan 2015 
\m/ 80 см сала \m/
User avatar
Joined: 12 Mar 2012
Posts: 2599
Age: 27
Name: Nick
Послушал один раз, понравилось - обязательно переслушаю.
Также полез качать Маниллу, которая раньше категорически не зашла из-за голоса вокалиста :pardon:

_________________
1990 AUROPHON BRAINSTORM (Germany) - lossless
1994 MAUSOLEUM CLASSIX (Belgium-Germany) - lossless
1998 VA - GRIM HARVEST - Complete Metal Massacre Volumes I-XII


Top
 Profile  
 
 
PostPosted: 11 Jan 2015 
Генеральный thrasher
User avatar
Joined: 03 Oct 2008
Posts: 3751
Lоcаtion: Ханты-Мансийский АО
Age: 45
Name: Сергей
Послушал один раз, понравилось - обязательно переслушаю.
Также полез качать Маниллу, которая раньше категорически не зашла из-за голоса вокалиста :pardon:


Да ты что!Манилла ни с кем не сравнится,на мой взгляд.Собирал её на фирме давно,несмотря на низкую покупательскую способность.


Top
 Profile  
 
 
PostPosted: 11 Jan 2015 
Хиппей (support team)
User avatar
Joined: 30 Jul 2007
Posts: 119421
Lоcаtion: Киев (Kyiv, UA)
Age: 47
Name: Andrey
thorbeorn wrote:
Манилла ни с кем не сравнится,на мой взгляд

На мой тоже - тошнотворьненько бывает их слушать :pardon:

_________________


Top
 Profile E-mail  
 
 
PostPosted: 12 Jan 2015 
Alive Again
User avatar
Joined: 17 Dec 2008
Posts: 4750
Lоcаtion: Курск Воронеж Оскол
Age: 46
Name: Дмитрий
:thanx:


Top
 Profile E-mail  
 
 
PostPosted: 04 Jun 2020 
Работнечег
User avatar
Joined: 28 Aug 2007
Posts: 6363
Lоcаtion: г. Москва
Age: 31
Name: Дима
Premonition - He Is Rising (1997)

Image

Label: Independent
Genre: Heavy Metal
Country: US
Format: Flac + Log + Cue + Covers
Size: 268 Mb

Line-Up:
Tattoo Frank - Vocals (ex-Deadly Bizarre, ex-The Altar, ex-Damien Thorne)
Shirran - Bass
Doug Mirly - Drums
Count Dane - Guitars



Tracklist:
1. Wicked One 05:00
2. Nervous Breakdown 03:08
3. T.V. Kills 03:05
4. He Is Rising 04:00
5. Bernard Ghetts 04:02
6. She Decompensates 03:52
7. Mr. Heroin 05:09
8. Roman Prince 04:15
9. King of Spain 03:46
10. What Is Wrong 03:36
11. The Boy with the Nothing Face 02:43

LOG
Exact Audio Copy V1.3 from 2. September 2016

EAC extraction logfile from 13. October 2019, 21:20

Premonition / He Is Rising

Used drive : PIONEER DVD-RW DVR-221 Adapter: 1 ID: 0

Read mode : Secure
Utilize accurate stream : Yes
Defeat audio cache : Yes
Make use of C2 pointers : No

Read offset correction : 6
Overread into Lead-In and Lead-Out : No
Fill up missing offset samples with silence : Yes
Delete leading and trailing silent blocks : No
Null samples used in CRC calculations : Yes
Used interface : Native Win32 interface for Win NT & 2000

Used output format : User Defined Encoder
Selected bitrate : 768 kBit/s
Quality : High
Add ID3 tag : No
Command line compressor : C:\Program Files (x86)\Exact Audio Copy\FLAC\FLAC.EXE
Additional command line options : -6 -V -T "ARTIST=%artist%" -T "TITLE=%title%" -T "ALBUM=%albumtitle%" -T "DATE=%year%" -T "TRACKNUMBER=%tracknr%" -T "GENRE=%genre%" -T "COMMENT=%comment%" -T "BAND=%albuminterpret%" -T "ALBUMARTIST=%albuminterpret%" -T "COMPOSER=%composer%" %haslyrics%--tag-from-file=LYRICS="%lyricsfile%"%haslyrics% -T "DISCNUMBER=%cdnumber%" -T "TOTALDISCS=%totalcds%" -T "TOTALTRACKS=%numtracks%" %hascover%--picture="%coverfile%"%hascover% %source% -o %dest%


TOC of the extracted CD

Track | Start | Length | Start sector | End sector
---------------------------------------------------------
1 | 0:00.00 | 4:59.72 | 0 | 22496
2 | 4:59.72 | 3:07.65 | 22497 | 36586
3 | 8:07.62 | 3:05.15 | 36587 | 50476
4 | 11:13.02 | 4:00.20 | 50477 | 68496
5 | 15:13.22 | 4:02.35 | 68497 | 86681
6 | 19:15.57 | 3:51.58 | 86682 | 104064
7 | 23:07.40 | 5:09.35 | 104065 | 127274
8 | 28:17.00 | 4:14.57 | 127275 | 146381
9 | 32:31.57 | 3:45.63 | 146382 | 163319
10 | 36:17.45 | 3:36.10 | 163320 | 179529
11 | 39:53.55 | 2:44.17 | 179530 | 191846


Range status and errors

Selected range

Filename D:\Музыка\Lossless\Premonition - He Is Rising (1997)\Premonition - He Is Rising.wav

Peak level 100.0 %
Extraction speed 5.6 X
Range quality 100.0 %
Copy CRC 44CA4675
Copy OK

No errors occurred


AccurateRip summary

Track 1 not present in database
Track 2 not present in database
Track 3 not present in database
Track 4 not present in database
Track 5 not present in database
Track 6 not present in database
Track 7 not present in database
Track 8 not present in database
Track 9 not present in database
Track 10 not present in database
Track 11 not present in database

None of the tracks are present in the AccurateRip database

End of status report

---- CUETools DB Plugin V2.1.6

[CTDB TOCID: AjZjmblE2OZJVBBmd_UpdW7wWSc-] database access error: Невозможно разрешить удаленное имя: 'db.cuetools.net'

CUE
REM GENRE "Heavy Metal"
REM DATE 1997
REM DISCID B009FD0B
REM COMMENT "ExactAudioCopy v1.3"
PERFORMER "Premonition"
TITLE "He Is Rising"
REM COMPOSER ""
FILE "Premonition - He Is Rising.flac" WAVE
TRACK 01 AUDIO
TITLE "Wicked One"
PERFORMER "Premonition"
REM COMPOSER ""
INDEX 01 00:00:00
TRACK 02 AUDIO
TITLE "Nervous Breakdown"
PERFORMER "Premonition"
REM COMPOSER ""
INDEX 01 04:59:72
TRACK 03 AUDIO
TITLE "T.V. Kills"
PERFORMER "Premonition"
REM COMPOSER ""
INDEX 01 08:07:62
TRACK 04 AUDIO
TITLE "He Is Rising"
PERFORMER "Premonition"
REM COMPOSER ""
INDEX 01 11:13:02
TRACK 05 AUDIO
TITLE "Bernard Ghetts"
PERFORMER "Premonition"
REM COMPOSER ""
INDEX 01 15:13:22
TRACK 06 AUDIO
TITLE "She Decompensates"
PERFORMER "Premonition"
REM COMPOSER ""
INDEX 00 19:14:50
INDEX 01 19:15:57
TRACK 07 AUDIO
TITLE "Mr. Heroin"
PERFORMER "Premonition"
REM COMPOSER ""
INDEX 01 23:07:40
TRACK 08 AUDIO
TITLE "Roman Prince"
PERFORMER "Premonition"
REM COMPOSER ""
INDEX 01 28:17:00
TRACK 09 AUDIO
TITLE "King Of Spain"
PERFORMER "Premonition"
REM COMPOSER ""
INDEX 01 32:31:57
TRACK 10 AUDIO
TITLE "What Is Wrong"
PERFORMER "Premonition"
REM COMPOSER ""
INDEX 01 36:17:45
TRACK 11 AUDIO
TITLE "The Boy With The Nothing Face"
PERFORMER "Premonition"
REM COMPOSER ""
INDEX 01 39:53:55


Yadi

Не такой классный как Fame has a price, но тоже добротный альбом, особенно для дебютника!


Top
 Profile E-mail  
 
 
PostPosted: 04 Jun 2020 
Прокъмитолист
User avatar
Joined: 12 Aug 2007
Posts: 6776
Lоcаtion: Санктъ-Петербуркъ
Age: 53
Name: Олекъ
:thanx:

_________________
прокъметол - это музыко, от которово есть прок (ы)


Top
 Profile  
 
Display posts from previous:  Sort by  
Post new topic Reply to topic  [ 16 posts ] 

All times are UTC + 3 hours


Who is online

Users browsing this forum: No registered users and 2 guests


You cannot post new topics in this forum
You cannot reply to topics in this forum
You cannot edit your posts in this forum
You cannot delete your posts in this forum
You cannot post attachments in this forum

Search for:
Яндекс.Метрика
Powered by phpBB © 2000, 2002, 2005, 2007 phpBB Group