\m/ 80's metal \m/

Информационно-аналитический форум "80 см пыли" (In Search We Trust) "У нас никто никуда не спешит"
Me For You - http://me-4u.com
It is currently 25 Oct 2020

All times are UTC + 3 hours

Spoiler
Chat - temporary registration for foreign users (please leave your application here)







Post new topic Reply to topic  [ 5 posts ] 
Author Message
 
PostPosted: 26 Nov 2014 
Генеральный thrasher
User avatar
Joined: 03 Oct 2008
Posts: 3751
Lоcаtion: Ханты-Мансийский АО
Age: 45
Name: Сергей
Image

Year:2014
Style:Speed/Thrash metal
Country:Germany
Audio:Flac+Cue+Log+Scans
Size:467Mb+254Mb
Source:my CD
Label:StormSpell Records

CD1 Tracklist:
01. Opening Theme 02:18
02. Pray To The Godz Of Wrath 04:53
03. Kill That Beast 04:50
04. Paradox 05:40
05. Execution 03:15
06. Death, Screaming And Pain 05:43
07. No Place To Survive 03:40
08. Victims Of Hell 03:20
09. Beware The Darkness 05:31
10. At Night Ever Twice 06:50
11. The Fox 05:20
12. Tears Of Repentance 07:56
13. Outro 01:33

CD2 Tracklist:
01. Asturias / Beyond Space 06:29
02. Mystery 05:32
03. Execution / Invasion 05:52
04. Kill That Beast 04:50
05. Product Of Imagination 07:33
06. Wotan (Der Wahnwitzige) 00:19
07. Death, Screaming And Pain (live) 05:23

Cue 1"
REM GENRE "Thrash Metal"
REM DATE 2014
REM DISCID A60E5D0D
REM COMMENT "ExactAudioCopy v0.99pb5"
PERFORMER "Paradox"
TITLE "The Demo Collection 1986-1987 (Disc 1)"
FILE "Paradox - The Demo Collection 1986-1987 (Disc 1).flac" WAVE
TRACK 01 AUDIO
TITLE "Opening Theme"
PERFORMER "Paradox"
FLAGS DCP
INDEX 01 00:00:00
TRACK 02 AUDIO
TITLE "Pray To The Godz Of Wrath"
PERFORMER "Paradox"
FLAGS DCP
INDEX 00 02:18:67
INDEX 01 02:20:67
TRACK 03 AUDIO
TITLE "Kill That Beast"
PERFORMER "Paradox"
FLAGS DCP
INDEX 00 07:14:20
INDEX 01 07:16:20
TRACK 04 AUDIO
TITLE "Paradox"
PERFORMER "Paradox"
FLAGS DCP
INDEX 00 12:06:25
INDEX 01 12:08:25
TRACK 05 AUDIO
TITLE "Execution (Instrumental)"
PERFORMER "Paradox"
FLAGS DCP
INDEX 00 17:48:72
INDEX 01 17:50:72
TRACK 06 AUDIO
TITLE "Death, Screaming, And Pain"
PERFORMER "Paradox"
FLAGS DCP
INDEX 00 21:06:05
INDEX 01 21:08:05
TRACK 07 AUDIO
TITLE "No Place To Survive"
PERFORMER "Paradox"
FLAGS DCP
INDEX 00 26:51:39
INDEX 01 26:53:39
TRACK 08 AUDIO
TITLE "Victims Of Hell"
PERFORMER "Paradox"
FLAGS DCP
INDEX 00 30:34:11
INDEX 01 30:36:11
TRACK 09 AUDIO
TITLE "Beware The Darkness"
PERFORMER "Paradox"
FLAGS DCP
INDEX 00 33:56:70
INDEX 01 33:58:70
TRACK 10 AUDIO
TITLE "At Night Ever Twice"
PERFORMER "Paradox"
FLAGS DCP
INDEX 00 39:30:08
INDEX 01 39:32:08
TRACK 11 AUDIO
TITLE "The Fox"
PERFORMER "Paradox"
FLAGS DCP
INDEX 00 46:22:13
INDEX 01 46:24:13
TRACK 12 AUDIO
TITLE "Tears Of Repentance"
PERFORMER "Paradox"
FLAGS DCP
INDEX 00 51:44:36
INDEX 01 51:46:36
TRACK 13 AUDIO
TITLE "Outro"
PERFORMER "Paradox"
FLAGS DCP
INDEX 00 59:42:52
INDEX 01 59:44:52

"Cue 2"
REM GENRE "Thrash Metal"
REM DATE 2014
REM DISCID 54087207
REM COMMENT "ExactAudioCopy v0.99pb5"
PERFORMER "Paradox"
TITLE "The Demo Collection 1986-1987 (Disc 2)"
FILE "Paradox - The Demo Collection 1986-1987 (Disc 2).flac" WAVE
TRACK 01 AUDIO
TITLE "Asturias / Beyond Space"
PERFORMER "Paradox"
FLAGS DCP
INDEX 01 00:00:00
TRACK 02 AUDIO
TITLE "Mystery"
PERFORMER "Paradox"
FLAGS DCP
INDEX 01 06:29:57
TRACK 03 AUDIO
TITLE "Execution / Invasion"
PERFORMER "Paradox"
FLAGS DCP
INDEX 01 12:02:44
TRACK 04 AUDIO
TITLE "Kill That Beast"
PERFORMER "Paradox"
FLAGS DCP
INDEX 01 17:55:28
TRACK 05 AUDIO
TITLE "Product Of Imagination"
PERFORMER "Paradox"
FLAGS DCP
INDEX 01 22:45:33
TRACK 06 AUDIO
TITLE "Wotan (Der Wahnwitzige)"
PERFORMER "Paradox"
FLAGS DCP
INDEX 01 30:18:73
TRACK 07 AUDIO
TITLE "Death, Screaming and Pain (live)"
PERFORMER "Paradox"
FLAGS DCP
INDEX 01 30:38:61

"Log 1"
Exact Audio Copy V0.99 prebeta 5 from 4. May 2009

Отчёт EAC об извлечении, выполненном 14. июня 2014, 18:06

Paradox / The Demo Collection 1986-1987 (Disc 1)

Дисковод: MATSHITADVD-RAM UJ8A0AS Adapter: 0 ID: 1

Режим чтения : Достоверность
Использование точного потока : Да
Отключение кэша аудио : Да
Использование указателей C2 : Нет

Коррекция смещения при чтении : 102
Способность читать области Lead-in и Lead-out : Нет
Заполнение пропущенных сэмплов тишиной : Да
Удаление блоков с тишиной в начале и конце : Нет
При вычислениях CRC использовались нулевые сэмплы : Да
Интерфейс : Встроенный Win32-интерфейс для Win NT/2000

Выходной формат : Пользовательский кодировщик
Выбранный битрейт : 1024 kBit/s
Качество : Высокий
Добавление ID3-тэга : Нет
Утилита сжатия : C:\Program Files\Exact Audio Copy\FLAC\FLAC.EXE
Дополнительные параметры : -6 -V -T "ARTIST=%a" -T "TITLE=%t" -T "ALBUM=%g" -T "DATE=%y" -T "TRACKNUMBER=%n" -T "GENRE=%m" -T "COMMENT=%e" %s -o %d


TOC извлечённого CD

Трек | Старт | Длительность | Начальный сектор | Конечный сектор
---------------------------------------------------------------------
1 | 0:00.00 | 2:20.67 | 0 | 10566
2 | 2:20.67 | 4:55.28 | 10567 | 32719
3 | 7:16.20 | 4:52.05 | 32720 | 54624
4 | 12:08.25 | 5:42.47 | 54625 | 80321
5 | 17:50.72 | 3:17.08 | 80322 | 95104
6 | 21:08.05 | 5:45.34 | 95105 | 121013
7 | 26:53.39 | 3:42.47 | 121014 | 137710
8 | 30:36.11 | 3:22.59 | 137711 | 152919
9 | 33:58.70 | 5:33.13 | 152920 | 177907
10 | 39:32.08 | 6:52.05 | 177908 | 208812
11 | 46:24.13 | 5:22.23 | 208813 | 232985
12 | 51:46.36 | 7:58.16 | 232986 | 268851
13 | 59:44.52 | 1:33.05 | 268852 | 275831


Характеристики диапазона извлечения и сообщения об ошибках

Выбранный диапазон

Имя файла C:\Users\эксперт\Music\Paradox - The Demo Collection 1986-1987 (Disc 1).wav

Пиковый уровень 100.0 %
Качество диапазона 100.0 %
CRC копии ADACE4D1
Копирование... OK

Ошибок не произошло


AccurateRip: сводка

Трек 1 точность не определена (достоверность 1) [E9DD4E2C], AccurateRip вернул [F164682F]
Трек 2 точность не определена (достоверность 1) [DC192744], AccurateRip вернул [5956987E]
Трек 3 точность не определена (достоверность 1) [C1E65EA2], AccurateRip вернул [A086D5A3]
Трек 4 точность не определена (достоверность 1) [E50F7376], AccurateRip вернул [DC8C2727]
Трек 5 точность не определена (достоверность 1) [34877874], AccurateRip вернул [C331E338]
Трек 6 точность не определена (достоверность 1) [B43DEB3E], AccurateRip вернул [F6761EF5]
Трек 7 точность не определена (достоверность 1) [FFFED804], AccurateRip вернул [E5F4982D]
Трек 8 точность не определена (достоверность 1) [B7A06F99], AccurateRip вернул [7D6B0744]
Трек 9 точность не определена (достоверность 1) [C44FCBAE], AccurateRip вернул [656A8B80]
Трек 10 точность не определена (достоверность 1) [40FBD1D2], AccurateRip вернул [77BDB83B]
Трек 11 точность не определена (достоверность 1) [BDF181B0], AccurateRip вернул [8CB5A603]
Трек 12 точность не определена (достоверность 1) [40F3CC0E], AccurateRip вернул [32C070E4]
Трек 13 точность не определена (достоверность 1) [F391392F], AccurateRip вернул [94E79672]

Ни один трек не прошёл проверки на точность
В вашей базе может быть иной вариант штамповки диска

Конец отчёта

"Log 2"
Exact Audio Copy V0.99 prebeta 5 from 4. May 2009

Отчёт EAC об извлечении, выполненном 14. июня 2014, 19:20

Paradox / The Demo Collection 1986-1987 (Disc 2)

Дисковод: MATSHITADVD-RAM UJ8A0AS Adapter: 0 ID: 1

Режим чтения : Достоверность
Использование точного потока : Да
Отключение кэша аудио : Да
Использование указателей C2 : Нет

Коррекция смещения при чтении : 102
Способность читать области Lead-in и Lead-out : Нет
Заполнение пропущенных сэмплов тишиной : Да
Удаление блоков с тишиной в начале и конце : Нет
При вычислениях CRC использовались нулевые сэмплы : Да
Интерфейс : Встроенный Win32-интерфейс для Win NT/2000

Выходной формат : Пользовательский кодировщик
Выбранный битрейт : 1024 kBit/s
Качество : Высокий
Добавление ID3-тэга : Нет
Утилита сжатия : C:\Program Files\Exact Audio Copy\FLAC\FLAC.EXE
Дополнительные параметры : -6 -V -T "ARTIST=%a" -T "TITLE=%t" -T "ALBUM=%g" -T "DATE=%y" -T "TRACKNUMBER=%n" -T "GENRE=%m" -T "COMMENT=%e" %s -o %d


TOC извлечённого CD

Трек | Старт | Длительность | Начальный сектор | Конечный сектор
---------------------------------------------------------------------
1 | 0:00.00 | 6:29.57 | 0 | 29231
2 | 6:29.57 | 5:32.62 | 29232 | 54193
3 | 12:02.44 | 5:52.59 | 54194 | 80652
4 | 17:55.28 | 4:50.05 | 80653 | 102407
5 | 22:45.33 | 7:33.40 | 102408 | 136422
6 | 30:18.73 | 0:19.63 | 136423 | 137910
7 | 30:38.61 | 5:23.28 | 137911 | 162163


Характеристики диапазона извлечения и сообщения об ошибках

Выбранный диапазон

Имя файла C:\Users\эксперт\Music\Paradox - The Demo Collection 1986-1987 (Disc 2).wav

Пиковый уровень 100.0 %
Качество диапазона 100.0 %
CRC копии 6F648AB9
Копирование... OK

Ошибок не произошло


AccurateRip: сводка

Трек 1 точность не определена (достоверность 1) [7764341C], AccurateRip вернул [BB64CA79]
Трек 2 точность не определена (достоверность 1) [98262373], AccurateRip вернул [02F88E6F]
Трек 3 точность не определена (достоверность 1) [4B595645], AccurateRip вернул [80004382]
Трек 4 точность не определена (достоверность 1) [CEFEF443], AccurateRip вернул [B3457A53]
Трек 5 точность не определена (достоверность 1) [E1D78608], AccurateRip вернул [EB2422C6]
Трек 6 точность не определена (достоверность 1) [9A93B462], AccurateRip вернул [5373BA0D]
Трек 7 точность не определена (достоверность 1) [B607D534], AccurateRip вернул [21E41102]

Ни один трек не прошёл проверки на точность
В вашей базе может быть иной вариант штамповки диска

Конец отчёта


Demo Collection 1986-1987 CD 1
Demo Collection 1986-1987 CD 2


Top
 Profile  
 
 
PostPosted: 26 Nov 2014 
Хиппей (support team)
User avatar
Joined: 30 Jul 2007
Posts: 119421
Lоcаtion: Киев (Kyiv, UA)
Age: 47
Name: Andrey
:thanx:

mirrorz:
CD1 - Narod l M-Cloud
CD2 - Narod l M-Cloud

_________________


Top
 Profile E-mail  
 
 
PostPosted: 26 Nov 2014 
Я набрал 1000 сообщений!
User avatar
Joined: 28 Jul 2008
Posts: 1013
Lоcаtion: Украина---Днепропетровск
Age: 46
Name: Александр
:thanx:

_________________
Музыка в которой я растворяюсь многих угнетает......


Top
 Profile  
 
 
PostPosted: 26 Nov 2014 
спирт 100%
User avatar
Joined: 22 Sep 2008
Posts: 4594
Age: 49
Name: Саня
Спасибо! :thanx:


Top
 Profile  
 
 
PostPosted: 30 Jul 2015 
Доктор энтомологии
User avatar
Joined: 22 Jan 2009
Posts: 10324
Lоcаtion: Даугавпилс
Age: 45
Name: Алексей
:thanx: Демки просто восхитительны :meloman: :lob:


Top
 Profile  
 
Display posts from previous:  Sort by  
Post new topic Reply to topic  [ 5 posts ] 

All times are UTC + 3 hours


Who is online

Users browsing this forum: No registered users and 1 guest


You cannot post new topics in this forum
You cannot reply to topics in this forum
You cannot edit your posts in this forum
You cannot delete your posts in this forum
You cannot post attachments in this forum

Search for:
Яндекс.Метрика
Powered by phpBB © 2000, 2002, 2005, 2007 phpBB Group