\m/ 80's metal \m/

Информационно-аналитический форум "80 см пыли" (In Search We Trust) "У нас никто никуда не спешит"
Me For You - http://me-4u.com
It is currently 25 Oct 2020

All times are UTC + 3 hours

Spoiler
Chat - temporary registration for foreign users (please leave your application here)







Post new topic Reply to topic  [ 10 posts ] 
Author Message
 
PostPosted: 30 Oct 2014 
Хиппей (support team)
User avatar
Joined: 30 Jul 2007
Posts: 119421
Lоcаtion: Киев (Kyiv, UA)
Age: 47
Name: Andrey
Panic - 1993 - Fact [flac]

Image Image Image

Line-up:

Jeff Braimes - vocals
Martin Chandler - guitars
George Hernandez - bass
Jack Coy - drums

    1. Die Tryin' - 03:16
    2. Close My Eyes and Jump - 03:26
    3. Burn One - 05:16
    4. Nonchalance - 04:28
    5. Two Things (XYY) - 04:06
    6. Hit and Dragged - 03:52
    7. Rotator - 03:52
    8. Gone Bad - 04:22
    9. Hell No Fuck Yes - 03:37
    10. Think About It - 02:30

    TPT: 38:45

http://www.metal-archives.com/bands/Panic/1132

Класссный трэшнячок :true:
Вряд ли кто-то не слышал эту группу ранее, потому пока промолчу.

зы. Сам давно не слушал, нужно освежить в памяти :pardon: А пока случайно нашлась ссылка на лосика.
Смотрим лог, если что.

mirror: Narod l M-Cloud

log
Exact Audio Copy V0.99 prebeta 5 from 4. May 2009

EAC extraction logfile from 29. November 2010, 19:07

Panic / Fact

Used drive : TSSTcorp - CDDVDW TS-L633A AS00 Adapter: 2 ID: 1

Read mode : Secure
Utilize accurate stream : Yes
Defeat audio cache : Yes
Make use of C2 pointers : No

Read offset correction : 6
Overread into Lead-In and Lead-Out : No
Fill up missing offset samples with silence : Yes
Delete leading and trailing silent blocks : No
Null samples used in CRC calculations : Yes
Used interface : Native Win32 interface for Win NT & 2000

Used output format : Internal WAV Routines
Sample format : 44.100 Hz; 16 Bit; Stereo


TOC of the extracted CD

Track | Start | Length | Start sector | End sector
---------------------------------------------------------
1 | 0:00.32 | 3:15.73 | 32 | 14729
2 | 3:16.30 | 3:27.10 | 14730 | 30264
3 | 6:43.40 | 5:15.72 | 30265 | 53961
4 | 11:59.37 | 4:28.55 | 53962 | 74116
5 | 16:28.17 | 4:06.25 | 74117 | 92591
6 | 20:34.42 | 3:52.40 | 92592 | 110031
7 | 24:27.07 | 3:52.68 | 110032 | 127499
8 | 28:20.00 | 4:22.32 | 127500 | 147181
9 | 32:42.32 | 3:37.20 | 147182 | 163476
10 | 36:19.52 | 2:29.53 | 163477 | 174704


Range status and errors

Selected range

Filename C:\_NEW YEAR 2011\Panic 1993 - Fact\Panic - Fact.wav

Peak level 100.0 %
Range quality 100.0 %
Test CRC 5690CB19
Copy CRC 5690CB19
Copy OK

No errors occurred


AccurateRip summary

Track 1 not present in database
Track 2 not present in database
Track 3 not present in database
Track 4 not present in database
Track 5 not present in database
Track 6 not present in database
Track 7 not present in database
Track 8 not present in database
Track 9 not present in database
Track 10 not present in database

None of the tracks are present in the AccurateRip database

End of status report

cue
REM GENRE "Thrash Metal"
REM DATE 1993
REM DISCID 8309190A
REM COMMENT "ExactAudioCopy v0.99pb5"
PERFORMER "Panic"
TITLE "Fact"
FILE "Panic - Fact.flac" WAVE
TRACK 01 AUDIO
TITLE "Die Tryin'"
PERFORMER "Panic"
INDEX 00 00:00:00
INDEX 01 00:00:32
TRACK 02 AUDIO
TITLE "Close My Eyes And Jump"
PERFORMER "Panic"
INDEX 01 03:16:30
TRACK 03 AUDIO
TITLE "Burn One"
PERFORMER "Panic"
INDEX 01 06:43:40
TRACK 04 AUDIO
TITLE "Nonchalance"
PERFORMER "Panic"
INDEX 01 11:59:37
TRACK 05 AUDIO
TITLE "Two Things (XYY)"
PERFORMER "Panic"
INDEX 01 16:28:17
TRACK 06 AUDIO
TITLE "Hit And Dragged"
PERFORMER "Panic"
INDEX 01 20:34:42
TRACK 07 AUDIO
TITLE "Rotator"
PERFORMER "Panic"
INDEX 01 24:27:07
TRACK 08 AUDIO
TITLE "Gone Bad"
PERFORMER "Panic"
INDEX 01 28:20:00
TRACK 09 AUDIO
TITLE "Hell No Fuck Yes"
PERFORMER "Panic"
INDEX 01 32:42:32
TRACK 10 AUDIO
TITLE "Think About It"
PERFORMER "Panic"
INDEX 01 36:19:52

_________________


Top
 Profile E-mail  
 
 
PostPosted: 31 Oct 2014 
парень в очёчкXаX!
User avatar
Joined: 15 Aug 2007
Posts: 2353
Lоcаtion: UK'раина, г. ЛондАн Би-Би-Си
Age: 50
Name: Сергей
Вряд ли кто-то не слышал эту группу ранее, потому пока промолчу.

ну, еще бы Скатырбраинидзэ, еще бы не слышал, еще бы не знал, еще бы не пил, еще бы не спал :nunu:
шикарнейший вокал Джефа просто крышу сносит, круша и разрушая наш Браин :true:
скорости и тяжести рифов Мартина Чендлера вообще нет равных :true:
тяжелый монотонный басс Джорджа Хернандеза просто поражает своими глубокими партиями
ну а барабаши от Джека Цоя приводят мозХ в состояние дробоскопического ударного супер мега крошилова всего, что только можно покрошитЪ...

ансамбль Паниц вообще перевернул мое представление о хэвиметаллическом понимании в музыкальном контексте тех или иных поисковых жанровых сочетаний во времени и пространстве!

так шо я тоже помолчу ;)

Паниц
:true:
:au: :str: :au: а не подскажешь, с какой песенки лучше начинать знакомство с альбомом, чтобы не испортить впечатление в целом о группе ??? :au: :str: :au:


Top
 Profile  
 
 
PostPosted: 31 Oct 2014 
Хиппей (support team)
User avatar
Joined: 30 Jul 2007
Posts: 119421
Lоcаtion: Киев (Kyiv, UA)
Age: 47
Name: Andrey
Scatterbrain wrote:
потому пока промолчу

:pardon:
А завтра кааак расскажу :dance:

attax меленькими букофкаме wrote:
а не подскажешь, с какой песенки лучше начинать знакомство с альбомом, чтобы не испортить впечатление в целом о группе ???

Со второй прям и начинай :meloman:

_________________


Top
 Profile E-mail  
 
 
PostPosted: 31 Oct 2014 
Хиппей (support team)
User avatar
Joined: 30 Jul 2007
Posts: 119421
Lоcаtion: Киев (Kyiv, UA)
Age: 47
Name: Andrey
attax wrote:
Паниц

Раниц :lloo:

_________________


Top
 Profile E-mail  
 
 
PostPosted: 31 Oct 2014 
\m/ 80 см сала \m/
User avatar
Joined: 12 Mar 2012
Posts: 2599
Age: 27
Name: Nick
На третьей песне выключил :benya:
Запомнилось только хэтфилдоподобным вокалом, да и иногда гитарист и басист запиливали недурно. Не мое, видимо :pardon:

_________________
1990 AUROPHON BRAINSTORM (Germany) - lossless
1994 MAUSOLEUM CLASSIX (Belgium-Germany) - lossless
1998 VA - GRIM HARVEST - Complete Metal Massacre Volumes I-XII


Top
 Profile  
 
 
PostPosted: 31 Oct 2014 
Хиппей (support team)
User avatar
Joined: 30 Jul 2007
Posts: 119421
Lоcаtion: Киев (Kyiv, UA)
Age: 47
Name: Andrey
Хм...хм... надо бы и себе послушать :oops:

_________________


Top
 Profile E-mail  
 
 
PostPosted: 31 Oct 2014 
Персональный статус
Joined: 19 Jul 2010
Posts: 282
Lоcаtion: Москва
Name: Вадим
Ну да, для 93-го через чур примитивно.


Top
 Profile E-mail  
 
 
PostPosted: 02 Nov 2014 
Хиппей (support team)
User avatar
Joined: 30 Jul 2007
Posts: 119421
Lоcаtion: Киев (Kyiv, UA)
Age: 47
Name: Andrey
Ну да, для 93-го через чур примитивно.

Как раз вполне в духе того времени. По сути последователи Антракса с Бушем. Мягковатый но зажигательный (а кому и нудный) фанк-трэш :meloman:

Анатолию Приватиру явно понравится.



зы. Незадача, но я всё же в очередной раз спутал группы. Или слушал только дебютник данной группы :pardon:
Скоро проверю.
ps. Всякие презервативо-обладатели удалили сразу песню и с туба и с СаундКлауды :esel:

_________________


Top
 Profile E-mail  
 
 
PostPosted: 02 Nov 2014 
Хиппей (support team)
User avatar
Joined: 30 Jul 2007
Posts: 119421
Lоcаtion: Киев (Kyiv, UA)
Age: 47
Name: Andrey
Кака какая-то
Image

_________________


Top
 Profile E-mail  
 
 
PostPosted: 03 Nov 2014 
Хиппей (support team)
User avatar
Joined: 30 Jul 2007
Posts: 119421
Lоcаtion: Киев (Kyiv, UA)
Age: 47
Name: Andrey
Panic - 1991 - Epidemic [flac]

Image

Image

mirror: Narod l M-Cloud

Scatterbrain wrote:
Незадача, но я всё же в очередной раз спутал группы. Или слушал только дебютник данной группы
Скоро проверю.

Второе :dance:
Так что Серёга полностью праф :thanx:
attax wrote:
шикарнейший вокал Джефа просто крышу сносит, круша и разрушая наш Браин
скорости и тяжести рифов Мартина Чендлера вообще нет равных
тяжелый монотонный басс Джорджа Хернандеза просто поражает своими глубокими партиями
ну а барабаши от Джека Цоя приводят мозХ в состояние дробоскопического ударного супер мега крошилова всего, что только можно покрошитЪ...

Итого - скоростной техничный трэшак a-la Anthrax начала 90-х :meloman:

7/10

log
Exact Audio Copy V0.99 prebeta 5 from 4. May 2009

EAC extraction logfile from 29. November 2010, 18:52

Panic / Epidemic

Used drive : TSSTcorp - CDDVDW TS-L633A AS00 Adapter: 2 ID: 1

Read mode : Secure
Utilize accurate stream : Yes
Defeat audio cache : Yes
Make use of C2 pointers : No

Read offset correction : 6
Overread into Lead-In and Lead-Out : No
Fill up missing offset samples with silence : Yes
Delete leading and trailing silent blocks : No
Null samples used in CRC calculations : Yes
Used interface : Native Win32 interface for Win NT & 2000

Used output format : Internal WAV Routines
Sample format : 44.100 Hz; 16 Bit; Stereo


TOC of the extracted CD

Track | Start | Length | Start sector | End sector
---------------------------------------------------------
1 | 0:00.32 | 4:22.50 | 32 | 19731
2 | 4:23.07 | 3:45.55 | 19732 | 36661
3 | 8:08.62 | 4:15.08 | 36662 | 55794
4 | 12:23.70 | 5:41.45 | 55795 | 81414
5 | 18:05.40 | 4:24.12 | 81415 | 101226
6 | 22:29.52 | 5:45.65 | 101227 | 127166
7 | 28:15.42 | 4:14.33 | 127167 | 146249
8 | 32:30.00 | 5:39.42 | 146250 | 171716
9 | 38:09.42 | 2:19.03 | 171717 | 182144
10 | 40:28.45 | 5:28.25 | 182145 | 206769


Range status and errors

Selected range

Filename C:\_NEW YEAR 2011\Panic 1991 - Epidemic\Panic - Epidemic.wav

Peak level 97.3 %
Range quality 100.0 %
Test CRC DB1210F6
Copy CRC DB1210F6
Copy OK

No errors occurred


AccurateRip summary

Track 1 accurately ripped (confidence 1) [2308DA9C]
Track 2 accurately ripped (confidence 1) [8CC144F7]
Track 3 accurately ripped (confidence 1) [83EFF658]
Track 4 accurately ripped (confidence 1) [1ABA1778]
Track 5 accurately ripped (confidence 1) [F57534DD]
Track 6 accurately ripped (confidence 1) [4B640F80]
Track 7 accurately ripped (confidence 1) [93CBDD6B]
Track 8 accurately ripped (confidence 1) [685D2A19]
Track 9 accurately ripped (confidence 1) [F95E1AC9]
Track 10 accurately ripped (confidence 1) [6E486208]

All tracks accurately ripped

End of status report

cue
REM GENRE "Thrash Metal"
REM DATE 1991
REM DISCID 850AC40A
REM COMMENT "ExactAudioCopy v0.99pb5"
PERFORMER "Panic"
TITLE "Epidemic"
FILE "Panic - Epidemic.flac" WAVE
TRACK 01 AUDIO
TITLE "Blackfeather Snake"
PERFORMER "Panic"
INDEX 00 00:00:00
INDEX 01 00:00:32
TRACK 02 AUDIO
TITLE "High Strung"
PERFORMER "Panic"
INDEX 01 04:23:07
TRACK 03 AUDIO
TITLE "Hypochondriac"
PERFORMER "Panic"
INDEX 01 08:08:62
TRACK 04 AUDIO
TITLE "Spider Desire"
PERFORMER "Panic"
INDEX 01 12:23:70
TRACK 05 AUDIO
TITLE "Morbid Curiosities"
PERFORMER "Panic"
INDEX 01 18:05:40
TRACK 06 AUDIO
TITLE "Hellfire Club"
PERFORMER "Panic"
INDEX 01 22:29:52
TRACK 07 AUDIO
TITLE "911"
PERFORMER "Panic"
INDEX 01 28:15:42
TRACK 08 AUDIO
TITLE "Devil's Night Out"
PERFORMER "Panic"
INDEX 01 32:30:00
TRACK 09 AUDIO
TITLE "I Stole Your Love"
PERFORMER "Panic"
INDEX 01 38:09:42
TRACK 10 AUDIO
TITLE "Pile O' Bones"
PERFORMER "Panic"
INDEX 01 40:28:45



_________________


Top
 Profile E-mail  
 
Display posts from previous:  Sort by  
Post new topic Reply to topic  [ 10 posts ] 

All times are UTC + 3 hours


Who is online

Users browsing this forum: No registered users and 3 guests


You cannot post new topics in this forum
You cannot reply to topics in this forum
You cannot edit your posts in this forum
You cannot delete your posts in this forum
You cannot post attachments in this forum

Search for:
Яндекс.Метрика
Powered by phpBB © 2000, 2002, 2005, 2007 phpBB Group