\m/ 80's metal \m/

Информационно-аналитический форум "80 см пыли" (In Search We Trust) "У нас никто никуда не спешит"
Me For You - http://me-4u.com
It is currently 25 Oct 2020

All times are UTC + 3 hours

Spoiler
Chat - temporary registration for foreign users (please leave your application here)







Post new topic Reply to topic  [ 7 posts ] 
Author Message
 
PostPosted: 19 Feb 2014 
Генеральный thrasher
User avatar
Joined: 03 Oct 2008
Posts: 3751
Lоcаtion: Ханты-Мансийский АО
Age: 45
Name: Сергей
Image

Year:2008
Style:Thrash Metal
Country:Finland
Audio:Flac+Cue+Log+Scans
Size:547Mb
Source:my CD
Label:Marquee Records

"Об альбоме"
Tracks 1...8 from "Festering Fairytales" (LP,1990)
Tracks 9...15 from "Sandman's Store" (EP,1991)
Tracks 16...20 from "Swimming in the Moonlight" (EP,1989)
Tracks 21...28 from "Opulence and Preservation...Poverty and Desperation" (demo,1989)


Tracklist:
01. Clockwork Toy 02:13
02. Plain Pain 02:20
03. Children Of The Chords 03:43
04. Decadence 02:06
05. Greetings From Hell 03:19
06. Symphonies Of Happiness 02:39
07. Merciless Dessert 02:59
08. Runk Öpström 04:29
09. Dreams Illusions Hallucinations 02:55
10. Like a May Morning 00:26
11. Me And My 03:19
12. A Rather Charming Day In a Jolly Brutal World 03:20
13. And The Mood Was Quite Cheerful 00:27
14. Teenage Pizzaface 01:21
15. Gretings From The Sandman 00:37
16. Method Of Manipulation 05:17
17. Rude Awakening 02:45
18. Lie On A Bed Of Roses 03:06
19. Swimming In The Moonlight 02:57
20. Plain Pain 02:33
21. Greetings From Hell 04:51
22. Decadence 02:21
23. Irrevocable Decision 02:13
24. Rap Scappy, Jou! 01:19
25. Since We Have Died 01:56
26. Sacrificed For Opulence 02:37
27. Perpetual Darkness 02:11
28. Greetings From Heaven 01:10

"Cue"
REM GENRE "Thrash Metal"
REM DATE 2008
REM DISCID C811031C
REM COMMENT "ExactAudioCopy v0.99pb5"
PERFORMER "Protected Illusion"
TITLE "1989-1991 Watching the Wake (compilation)"
FILE "Protected Illusion - 1989-1991 Watching the Wake (compilation).flac" WAVE
TRACK 01 AUDIO
TITLE "Clockwork Toy (Festering Fairytales -90)"
PERFORMER "Protected Illusion"
INDEX 01 00:00:00
TRACK 02 AUDIO
TITLE "Plain Pain (Festering Fairytales -90)"
PERFORMER "Protected Illusion"
INDEX 00 02:13:11
INDEX 01 02:15:11
TRACK 03 AUDIO
TITLE "Children of the Chords (Festering Fairytales -90)"
PERFORMER "Protected Illusion"
INDEX 00 04:36:06
INDEX 01 04:38:06
TRACK 04 AUDIO
TITLE "Decadence (Festering Fairytales -90)"
PERFORMER "Protected Illusion"
INDEX 00 08:21:15
INDEX 01 08:23:15
TRACK 05 AUDIO
TITLE "Greetings from Hell (Festering Fairytales -90)"
PERFORMER "Protected Illusion"
INDEX 00 10:29:28
INDEX 01 10:31:28
TRACK 06 AUDIO
TITLE "Symphonies of Happiness (Festering Fairytales -90)"
PERFORMER "Protected Illusion"
INDEX 00 13:51:09
INDEX 01 13:53:09
TRACK 07 AUDIO
TITLE "Merciless Dessert (Festering Fairytales -90)"
PERFORMER "Protected Illusion"
INDEX 00 16:32:50
INDEX 01 16:34:50
TRACK 08 AUDIO
TITLE "Runk Цpstrцm (Festering Fairytales -90)"
PERFORMER "Protected Illusion"
INDEX 00 19:34:27
INDEX 01 19:36:27
TRACK 09 AUDIO
TITLE "Dreams Illusions Hallucinations (Sandman's Store 7'' -91)"
PERFORMER "Protected Illusion"
INDEX 00 24:05:49
INDEX 01 24:07:49
TRACK 10 AUDIO
TITLE "Like a May Morning (Sandman's Store 7'' -91)"
PERFORMER "Protected Illusion"
INDEX 00 27:03:10
INDEX 01 27:05:10
TRACK 11 AUDIO
TITLE "Me and My (Sandman's Store 7'' -91)"
PERFORMER "Protected Illusion"
INDEX 00 27:31:70
INDEX 01 27:33:70
TRACK 12 AUDIO
TITLE "A Rather Charming Day in a Jolly Brutal World (Sandman's Store 7'' -91)"
PERFORMER "Protected Illusion"
INDEX 00 30:53:15
INDEX 01 30:55:15
TRACK 13 AUDIO
TITLE "...And the Mood Was Quite Cheerful (Sandman's Store 7'' -91)"
PERFORMER "Protected Illusion"
INDEX 00 34:15:64
INDEX 01 34:17:64
TRACK 14 AUDIO
TITLE "Teenage Pizzaface (Sandman's Store 7'' -91)"
PERFORMER "Protected Illusion"
INDEX 00 34:44:72
INDEX 01 34:46:72
TRACK 15 AUDIO
TITLE "Greetings From the Sandman (Sandman's Store 7'' -91)"
PERFORMER "Protected Illusion"
INDEX 00 36:08:58
INDEX 01 36:10:58
TRACK 16 AUDIO
TITLE "Method of Manipulation (Swimming in the Moonlight -89)"
PERFORMER "Protected Illusion"
INDEX 00 36:48:04
INDEX 01 36:50:04
TRACK 17 AUDIO
TITLE "Rude Awakening (Swimming in the Moonlight -89)"
PERFORMER "Protected Illusion"
INDEX 00 42:07:43
INDEX 01 42:09:43
TRACK 18 AUDIO
TITLE "Lie on a Bed of Roses (Swimming in the Moonlight -89)"
PERFORMER "Protected Illusion"
INDEX 00 44:54:53
INDEX 01 44:56:53
TRACK 19 AUDIO
TITLE "Swimming in the Moonlight (Swimming in the Moonlight -89)"
PERFORMER "Protected Illusion"
INDEX 00 48:02:71
INDEX 01 48:04:71
TRACK 20 AUDIO
TITLE "Plain Pain (Swimming in the Moonlight -89)"
PERFORMER "Protected Illusion"
INDEX 00 51:02:58
INDEX 01 51:04:58
TRACK 21 AUDIO
TITLE "Greetings from Hell (Opulence and Preservation...Poverty and Desperation demo..."
PERFORMER "Protected Illusion"
INDEX 00 53:38:50
INDEX 01 53:40:50
TRACK 22 AUDIO
TITLE "Decadence (Opulence and Preservation...Poverty and Desperation demo -89)"
PERFORMER "Protected Illusion"
INDEX 00 58:32:33
INDEX 01 58:34:33
TRACK 23 AUDIO
TITLE "Irrevocable Decision (Opulence and Preservation...Poverty and Desperation dem..."
PERFORMER "Protected Illusion"
INDEX 00 60:55:61
INDEX 01 60:57:61
TRACK 24 AUDIO
TITLE "Rap Scappy, Jou! (Opulence and Preservation...Poverty and Desperation demo -89)"
PERFORMER "Protected Illusion"
INDEX 00 63:11:24
INDEX 01 63:13:24
TRACK 25 AUDIO
TITLE "Since We Have Died (Opulence and Preservation...Poverty and Desperation demo ..."
PERFORMER "Protected Illusion"
INDEX 00 64:32:28
INDEX 01 64:34:28
TRACK 26 AUDIO
TITLE "Sacrificed for Opulence (Opulence and Preservation...Poverty and Desperation ..."
PERFORMER "Protected Illusion"
INDEX 00 66:30:54
INDEX 01 66:32:54
TRACK 27 AUDIO
TITLE "Perpetual Darkness (Opulence and Preservation...Poverty and Desperation demo ..."
PERFORMER "Protected Illusion"
INDEX 00 69:09:56
INDEX 01 69:11:56
TRACK 28 AUDIO
TITLE "Greetings from Heaven (Opulence and Preservation...Poverty and Desperation de..."
PERFORMER "Protected Illusion"
INDEX 00 71:22:68
INDEX 01 71:24:68

"Log"
Exact Audio Copy V0.99 prebeta 5 from 4. May 2009

Отчёт EAC об извлечении, выполненном 16. января 2014, 12:34

Protected Illusion / 1989-1991 Watching the Wake (compilation)

Дисковод: MATSHITADVD-RAM UJ8A0AS Adapter: 0 ID: 1

Режим чтения : Достоверность
Использование точного потока : Да
Отключение кэша аудио : Да
Использование указателей C2 : Нет

Коррекция смещения при чтении : 102
Способность читать области Lead-in и Lead-out : Нет
Заполнение пропущенных сэмплов тишиной : Да
Удаление блоков с тишиной в начале и конце : Нет
При вычислениях CRC использовались нулевые сэмплы : Да
Интерфейс : Встроенный Win32-интерфейс для Win NT/2000

Выходной формат : Пользовательский кодировщик
Выбранный битрейт : 1024 kBit/s
Качество : Высокий
Добавление ID3-тэга : Нет
Утилита сжатия : C:\Program Files\Exact Audio Copy\FLAC\FLAC.EXE
Дополнительные параметры : -6 -V -T "ARTIST=%a" -T "TITLE=%t" -T "ALBUM=%g" -T "DATE=%y" -T "TRACKNUMBER=%n" -T "GENRE=%m" -T "COMMENT=%e" %s -o %d


TOC извлечённого CD

Трек | Старт | Длительность | Начальный сектор | Конечный сектор
---------------------------------------------------------------------
1 | 0:00.00 | 2:15.11 | 0 | 10135
2 | 2:15.11 | 2:22.70 | 10136 | 20855
3 | 4:38.06 | 3:45.09 | 20856 | 37739
4 | 8:23.15 | 2:08.13 | 37740 | 47352
5 | 10:31.28 | 3:21.56 | 47353 | 62483
6 | 13:53.09 | 2:41.41 | 62484 | 74599
7 | 16:34.50 | 3:01.52 | 74600 | 88226
8 | 19:36.27 | 4:31.22 | 88227 | 108573
9 | 24:07.49 | 2:57.36 | 108574 | 121884
10 | 27:05.10 | 0:28.60 | 121885 | 124044
11 | 27:33.70 | 3:21.20 | 124045 | 139139
12 | 30:55.15 | 3:22.49 | 139140 | 154338
13 | 34:17.64 | 0:29.08 | 154339 | 156521
14 | 34:46.72 | 1:23.61 | 156522 | 162807
15 | 36:10.58 | 0:39.21 | 162808 | 165753
16 | 36:50.04 | 5:19.39 | 165754 | 189717
17 | 42:09.43 | 2:47.10 | 189718 | 202252
18 | 44:56.53 | 3:08.18 | 202253 | 216370
19 | 48:04.71 | 2:59.62 | 216371 | 229857
20 | 51:04.58 | 2:35.67 | 229858 | 241549
21 | 53:40.50 | 4:53.58 | 241550 | 263582
22 | 58:34.33 | 2:23.28 | 263583 | 274335
23 | 60:57.61 | 2:15.38 | 274336 | 284498
24 | 63:13.24 | 1:21.04 | 284499 | 290577
25 | 64:34.28 | 1:58.26 | 290578 | 299453
26 | 66:32.54 | 2:39.02 | 299454 | 311380
27 | 69:11.56 | 2:13.12 | 311381 | 321367
28 | 71:24.68 | 1:10.10 | 321368 | 326627


Характеристики диапазона извлечения и сообщения об ошибках

Выбранный диапазон

Имя файла C:\Users\эксперт\Music\Protected Illusion - 1989-1991 Watching the Wake (compilation).wav

Пиковый уровень 99.9 %
Качество диапазона 99.9 %
CRC копии C4F76A74
Копирование... OK

Ошибок не произошло


AccurateRip: сводка

Трек 1 точное извлечение (доверие 1) [DEA584C7]
Трек 2 точное извлечение (доверие 1) [154E496C]
Трек 3 точное извлечение (доверие 1) [844E998D]
Трек 4 точное извлечение (доверие 1) [1B126FC6]
Трек 5 точное извлечение (доверие 1) [F71B32EF]
Трек 6 точное извлечение (доверие 1) [3C0036D0]
Трек 7 точное извлечение (доверие 1) [AE11E13A]
Трек 8 точное извлечение (доверие 1) [72F68263]
Трек 9 точное извлечение (доверие 1) [0B675021]
Трек 10 точное извлечение (доверие 1) [997A9E9B]
Трек 11 точное извлечение (доверие 1) [83F49AC2]
Трек 12 точное извлечение (доверие 1) [3F563DD7]
Трек 13 точное извлечение (доверие 1) [B57E081B]
Трек 14 точное извлечение (доверие 1) [5B7F79BC]
Трек 15 точное извлечение (доверие 1) [0ECEC969]
Трек 16 точное извлечение (доверие 1) [BF8D4B28]
Трек 17 точное извлечение (доверие 1) [CC0D99EE]
Трек 18 точное извлечение (доверие 1) [5F9F3E06]
Трек 19 точное извлечение (доверие 1) [CABA1306]
Трек 20 точное извлечение (доверие 1) [47BD2766]
Трек 21 точное извлечение (доверие 1) [E4F5C2CC]
Трек 22 точное извлечение (доверие 1) [8C111782]
Трек 23 точное извлечение (доверие 1) [362804F5]
Трек 24 точное извлечение (доверие 1) [72CAC44D]
Трек 25 точное извлечение (доверие 1) [C8AC9B66]
Трек 26 точное извлечение (доверие 1) [F92969FA]
Трек 27 точное извлечение (доверие 1) [2A59318C]
Трек 28 точное извлечение (доверие 1) [19727BCB]

Все треки извлечены точно

Конец отчёта


1989-1991: Watching the Wake


Top
 Profile  
 
 
PostPosted: 19 Feb 2014 
Хиппей (support team)
User avatar
Joined: 30 Jul 2007
Posts: 119421
Lоcаtion: Киев (Kyiv, UA)
Age: 47
Name: Andrey
:thanx:

_________________


Top
 Profile E-mail  
 
 
PostPosted: 19 Feb 2014 
Дежурный по КУПу
User avatar
Joined: 17 Aug 2007
Posts: 5871
Age: 52
Name: Ге
:thanx:

_________________
http://jp-mania.ru/
http://jp-tourdates.ucoz.ru/


Top
 Profile  
 
 
PostPosted: 19 Feb 2014 
Персональный статус
User avatar
Joined: 04 Mar 2012
Posts: 239
Lоcаtion: Саратов
Name: Василий
:thanx:


Top
 Profile E-mail  
 
 
PostPosted: 19 Feb 2014 
Я набрал 1000 сообщений!
User avatar
Joined: 28 Jul 2008
Posts: 1013
Lоcаtion: Украина---Днепропетровск
Age: 46
Name: Александр
:thanx: :true:

_________________
Музыка в которой я растворяюсь многих угнетает......


Top
 Profile  
 
 
PostPosted: 19 Feb 2014 
Персональный статус
Joined: 19 Jul 2010
Posts: 282
Lоcаtion: Москва
Name: Вадим
Спасибо, не слышал про таких.


Top
 Profile E-mail  
 
 
PostPosted: 20 Feb 2014 
Прокъмитолист
User avatar
Joined: 12 Aug 2007
Posts: 6776
Lоcаtion: Санктъ-Петербуркъ
Age: 53
Name: Олекъ
спасибо, Серёг! :thanx:

_________________
прокъметол - это музыко, от которово есть прок (ы)


Top
 Profile  
 
Display posts from previous:  Sort by  
Post new topic Reply to topic  [ 7 posts ] 

All times are UTC + 3 hours


Who is online

Users browsing this forum: No registered users and 1 guest


You cannot post new topics in this forum
You cannot reply to topics in this forum
You cannot edit your posts in this forum
You cannot delete your posts in this forum
You cannot post attachments in this forum

Search for:
Яндекс.Метрика
Powered by phpBB © 2000, 2002, 2005, 2007 phpBB Group