\m/ 80's metal \m/

Информационно-аналитический форум "80 см пыли" (In Search We Trust) "У нас никто никуда не спешит"
Me For You - http://me-4u.com
It is currently 25 Oct 2020

All times are UTC + 3 hours

Spoiler
Chat - temporary registration for foreign users (please leave your application here)







Post new topic Reply to topic  [ 30 posts ]  Go to page 1, 2  Next
Author Message
 
PostPosted: 30 Jan 2014 
Работнечег
User avatar
Joined: 28 Aug 2007
Posts: 6363
Lоcаtion: г. Москва
Age: 31
Name: Дима
Image

Label: Face Records
Genre: Power/Speed Metal
Country: Germany
Format: Flac + Log + Cue + Covers/ MP3@320 kbps + Covers
Size: 405 Mb/142 Mb

Line-Up:
Thomas Mergenthaler - Bass
Armin "Emme" Pippirs - Drums
Robin Müller-Schober - Guitars
Thomas-Ludwig Schwarz - Vocals, Guitars (Lost Gain)


Tracklist:
1. Immortal 05:18
2. Chatooga 04:46
3. Child of Misery 06:20
4. No Tomorrow 05:38
5. Coward 05:27
6. Diary of a Dying 07:06
7. Against the Stream of Influence 03:56
8. Fading Daylight 06:54
9. Fear in my Mind 06:05
10. Question (No Lesson Learned) 05:21
11. (Secret Track)(Instrumental) 00:09

LOG
Exact Audio Copy V0.99 prebeta 5 from 4. May 2009

EAC extraction logfile from 27. January 2014, 0:07

Pettypew / Against The Stream Of Influence

Used drive : PIONEER DVD-RW DVR-116D Adapter: 0 ID: 0

Read mode : Secure
Utilize accurate stream : Yes
Defeat audio cache : Yes
Make use of C2 pointers : No

Read offset correction : 96
Overread into Lead-In and Lead-Out : No
Fill up missing offset samples with silence : Yes
Delete leading and trailing silent blocks : No
Null samples used in CRC calculations : Yes
Used interface : Native Win32 interface for Win NT & 2000

Used output format : User Defined Encoder
Selected bitrate : 32 kBit/s
Quality : High
Add ID3 tag : No
Command line compressor : C:\Program Files\Exact Audio Copy\Flac\flac.exe
Additional command line options : -6 -V %s


TOC of the extracted CD

Track | Start | Length | Start sector | End sector
---------------------------------------------------------
1 | 0:00.00 | 5:18.22 | 0 | 23871
2 | 5:18.22 | 4:46.34 | 23872 | 45355
3 | 10:04.56 | 6:19.34 | 45356 | 73814
4 | 16:24.15 | 5:38.34 | 73815 | 99198
5 | 22:02.49 | 5:26.52 | 99199 | 123700
6 | 27:29.26 | 7:06.34 | 123701 | 155684
7 | 34:35.60 | 5:55.34 | 155685 | 182343
8 | 40:31.19 | 6:34.49 | 182344 | 211942
9 | 47:05.68 | 6:02.34 | 211943 | 239126
10 | 53:08.27 | 5:21.34 | 239127 | 263235
11 | 58:29.61 | 0:09.07 | 263236 | 263917


Range status and errors

Selected range

Filename D:\Музыка\Lossless\Pettypew - Against The Stream Of Influence (1996) FLAC\Pettypew - Against The Stream Of Influence.wav

Peak level 99.9 %
Range quality 99.9 %
Copy CRC 4BC4262B
Copy OK

No errors occurred


AccurateRip summary

Track 1 not present in database
Track 2 not present in database
Track 3 not present in database
Track 4 not present in database
Track 5 not present in database
Track 6 not present in database
Track 7 not present in database
Track 8 not present in database
Track 9 not present in database
Track 10 not present in database
Track 11 not present in database

None of the tracks are present in the AccurateRip database

End of status report

CUE
REM GENRE "Speed/Power Metal"
REM DATE 1996
REM DISCID 870DBE0B
REM COMMENT "ExactAudioCopy v0.99pb5"
PERFORMER "Pettypew"
TITLE "Against The Stream Of Influence"
FILE "Pettypew - Against The Stream Of Influence.flac" WAVE
TRACK 01 AUDIO
TITLE "Imortal"
PERFORMER "Pettypew"
INDEX 01 00:00:00
TRACK 02 AUDIO
TITLE "Chatooga"
PERFORMER "Pettypew"
INDEX 00 05:16:29
INDEX 01 05:18:22
TRACK 03 AUDIO
TITLE "Child Of Misery"
PERFORMER "Pettypew"
INDEX 00 10:02:57
INDEX 01 10:04:56
TRACK 04 AUDIO
TITLE "No Tomorrow"
PERFORMER "Pettypew"
INDEX 00 16:22:16
INDEX 01 16:24:15
TRACK 05 AUDIO
TITLE "Coward"
PERFORMER "Pettypew"
INDEX 00 22:00:55
INDEX 01 22:02:49
TRACK 06 AUDIO
TITLE "Diary Of A Dying"
PERFORMER "Pettypew"
INDEX 00 27:27:28
INDEX 01 27:29:26
TRACK 07 AUDIO
TITLE "Against The Stream Of Influence"
PERFORMER "Pettypew"
INDEX 00 34:33:61
INDEX 01 34:35:60
TRACK 08 AUDIO
TITLE "Fading Daylight"
PERFORMER "Pettypew"
INDEX 00 40:29:20
INDEX 01 40:31:19
TRACK 09 AUDIO
TITLE "Fear In My Mind"
PERFORMER "Pettypew"
INDEX 00 47:03:69
INDEX 01 47:05:68
TRACK 10 AUDIO
TITLE "Questions"
PERFORMER "Pettypew"
INDEX 00 53:06:28
INDEX 01 53:08:27
TRACK 11 AUDIO
TITLE "Bonus"
PERFORMER "Pettypew"
INDEX 00 58:27:63
INDEX 01 58:29:61


FLAC
MP3

Более, чем хороший альбомчик! Егору EG Power'у рекомендую ознакомиться)

phpBB [youtube]

phpBB [youtube]


Top
 Profile E-mail  
 
 
PostPosted: 30 Jan 2014 
\m/ 80 см сала \m/
User avatar
Joined: 12 Mar 2012
Posts: 2599
Age: 27
Name: Nick
:thanx:

_________________
1990 AUROPHON BRAINSTORM (Germany) - lossless
1994 MAUSOLEUM CLASSIX (Belgium-Germany) - lossless
1998 VA - GRIM HARVEST - Complete Metal Massacre Volumes I-XII


Top
 Profile  
 
 
PostPosted: 30 Jan 2014 
Partisanen - nicht kapitulieren!!
User avatar
Joined: 25 Dec 2011
Posts: 7537
Lоcаtion: партизанские леса
Age: 48
Name: Владимир
:thanx:

_________________
One more beer and Heavy Metal and I'm just fine!
старовер, куле... слово "блин" - до сих пор через Ъ говорю


Top
 Profile E-mail  
 
 
PostPosted: 30 Jan 2014 
Хиппей (support team)
User avatar
Joined: 30 Jul 2007
Posts: 119421
Lоcаtion: Киев (Kyiv, UA)
Age: 47
Name: Andrey
:thanx:

mirror: Narod l M-Cloud

_________________


Top
 Profile E-mail  
 
 
PostPosted: 31 Jan 2014 
\m/ 80 см сала \m/
User avatar
Joined: 12 Mar 2012
Posts: 2599
Age: 27
Name: Nick
Вижу, ыщо и буклет подписан, ляпота :dance:

_________________
1990 AUROPHON BRAINSTORM (Germany) - lossless
1994 MAUSOLEUM CLASSIX (Belgium-Germany) - lossless
1998 VA - GRIM HARVEST - Complete Metal Massacre Volumes I-XII


Top
 Profile  
 
 
PostPosted: 31 Jan 2014 
Дежурный по КУПу
User avatar
Joined: 17 Aug 2007
Posts: 5871
Age: 52
Name: Ге
:thanx:

_________________
http://jp-mania.ru/
http://jp-tourdates.ucoz.ru/


Top
 Profile  
 
 
PostPosted: 31 Jan 2014 
спирт 100%
User avatar
Joined: 22 Sep 2008
Posts: 4594
Age: 49
Name: Саня
Димон,Спасибо! :true:


Top
 Profile  
 
 
PostPosted: 31 Jan 2014 
Прокъмитолист
User avatar
Joined: 12 Aug 2007
Posts: 6776
Lоcаtion: Санктъ-Петербуркъ
Age: 53
Name: Олекъ
спасибо, Дим! :thanx:

_________________
прокъметол - это музыко, от которово есть прок (ы)


Top
 Profile  
 
 
PostPosted: 31 Jan 2014 
Персональный статус
User avatar
Joined: 04 Mar 2012
Posts: 239
Lоcаtion: Саратов
Name: Василий
:thanx:


Top
 Profile E-mail  
 
 
PostPosted: 31 Jan 2014 
Доктор энтомологии
User avatar
Joined: 22 Jan 2009
Posts: 10324
Lоcаtion: Даугавпилс
Age: 45
Name: Алексей
:thanx: тож на полочку мп3 поставлю


Top
 Profile  
 
 
PostPosted: 31 Jan 2014 
Хиппей (support team)
User avatar
Joined: 30 Jul 2007
Posts: 119421
Lоcаtion: Киев (Kyiv, UA)
Age: 47
Name: Andrey
Шото меня с первого разу не цепануло... :vic:

_________________


Top
 Profile E-mail  
 
 
PostPosted: 01 Feb 2014 
Хиппей (support team)
User avatar
Joined: 30 Jul 2007
Posts: 119421
Lоcаtion: Киев (Kyiv, UA)
Age: 47
Name: Andrey
И с ашнаццатого не цепануло :vic:
Уже и лирику перечитал. Думал группа чисто стёбная-приколисты. Оказалось не совсем так.
Уже и ревьюшку на М-А почитал, и почти согласен с ней, но, блин, не могу никак привыкнуть к смене ритма по нескольку раз в каждой песне :esel:

Фотка группы периода этого альбома.
зы. Кстати, как бы кто на распинался на счёт манеры пения вокалиста на полном альбоме, но больше всего он мне напомнил бурчания Мартина Валькира из Саббат :true:

Image

Сейчас втыкну их демку за 02-й год :vic:

_________________


Top
 Profile E-mail  
 
 
PostPosted: 01 Feb 2014 
Хиппей (support team)
User avatar
Joined: 30 Jul 2007
Posts: 119421
Lоcаtion: Киев (Kyiv, UA)
Age: 47
Name: Andrey
Странно, но и миник выдержан в том же стиле :crazy:
Ща залью...

_________________


Top
 Profile E-mail  
 
 
PostPosted: 01 Feb 2014 
Хиппей (support team)
User avatar
Joined: 30 Jul 2007
Posts: 119421
Lоcаtion: Киев (Kyiv, UA)
Age: 47
Name: Andrey
Pettypew - 2002 - Back Where We Belong! (EP) [320]

Image

Narod l M-Cloud

Ага. А этот миник пародия на группу Rage :lloo:

_________________


Top
 Profile E-mail  
 
 
PostPosted: 01 Feb 2014 
Персональный статус
User avatar
Joined: 04 Mar 2012
Posts: 239
Lоcаtion: Саратов
Name: Василий
За фотку и миник кланяемся-кланяемся :thanx:


Top
 Profile E-mail  
 
 
PostPosted: 05 Feb 2014 
Power Metal Maniac
User avatar
Joined: 09 Aug 2008
Posts: 7238
Lоcаtion: Москва
Age: 42
Name: Егор
church wrote:
Более, чем хороший альбомчик! Егору EG Power'у рекомендую ознакомиться)

:thanx:

_________________
Long Live Metal!


Top
 Profile  
 
 
PostPosted: 23 Feb 2014 
Partisanen - nicht kapitulieren!!
User avatar
Joined: 25 Dec 2011
Posts: 7537
Lоcаtion: партизанские леса
Age: 48
Name: Владимир
а вот 1992 - Dedication [EP] ни у кого не завалялось? случайно... :oops:

_________________
One more beer and Heavy Metal and I'm just fine!
старовер, куле... слово "блин" - до сих пор через Ъ говорю


Top
 Profile E-mail  
 
 
PostPosted: 24 Feb 2014 
Почётный металлург
User avatar
Joined: 15 Sep 2007
Posts: 4360
Lоcаtion: Хабаровск
Age: 60
Name: чуть выше
Scatterbrain wrote:
не могу никак привыкнуть к смене ритма по нескольку раз в каждой песне

Хм, а меня это наоборот торкает. Надо скачать, слухануть.

_________________
Коль будешь людей ты ослами честить,
тебе человеком меж них не прослыть!
(Саади, персидский поэт, 13в.)


Top
 Profile  
 
 
PostPosted: 06 Mar 2014 
ТрэшЭрос
User avatar
Joined: 18 Jul 2011
Posts: 2307
Lоcаtion: Гулькевичи
Age: 45
Name: Александр
church, :thanx:
Что-то в этих звуках есть! :true:

_________________
Thrash no trash!!!


Top
 Profile E-mail  
 
 
PostPosted: 13 Oct 2017 
Рарник и трушник
User avatar
Joined: 25 Dec 2009
Posts: 9215
Lоcаtion: Москва
Age: 55
Name: Виталий
Нашёл на полке этот цыдыэр, давно не слушал и забыл про команду, но поставил и торкнуло, конечно много прогрессива, но очень достойная команда!
Диме спасибо за лося, Андруше за миник, редкий материал. :thanx:
Теперь осталось епишку 1992 найти. :pardon:


Top
 Profile  
 
Display posts from previous:  Sort by  
Post new topic Reply to topic  [ 30 posts ]  Go to page 1, 2  Next

All times are UTC + 3 hours


Who is online

Users browsing this forum: No registered users and 1 guest


You cannot post new topics in this forum
You cannot reply to topics in this forum
You cannot edit your posts in this forum
You cannot delete your posts in this forum
You cannot post attachments in this forum

Search for:
Яндекс.Метрика
Powered by phpBB © 2000, 2002, 2005, 2007 phpBB Group