\m/ 80's metal \m/

Информационно-аналитический форум "80 см пыли" (In Search We Trust) "У нас никто никуда не спешит"
Me For You - http://me-4u.com
It is currently 21 Jul 2019

All times are UTC + 3 hours

Spoiler
Chat - temporary registration for foreign users (please leave your application here)







Post new topic Reply to topic  [ 14 posts ] 
Author Message
 
PostPosted: 21 Jan 2014 
Работнечег
User avatar
Joined: 28 Aug 2007
Posts: 5919
Lоcаtion: г. Москва
Age: 30
Name: Дима
Image

Label: D & S Records
Genre: Thrash Metal with progressive influence
Country: Germany
Format: Flac + Log + Cue + Covers/MP3@320 kbps + Covers
Size: 300 Mb/ 112 Mb

Line-Up:
Chris Swatek - Bass
Ingo Lehn - Drums
Holger Simon - Guitars (Delirious, ex-Custard, ex-Layment)
Waips - Guitars (Automatic Self Destruct, ex-Invoid)
Dennis Dick - Vocals
SKIPPY - Everything


Tracklist:
1. Silent Consent 04:12
2. Searching for Comfort 01:34
3. Face the Facts 04:27
4. State of Mind 04:01
5. Yanus 03:55
6. Scratch the Surface 04:55
7. Why Speak? 05:22
8. Remnants 06:00
9. Listening to Yourself 05:10
10. Sandman (Charleston-Mix)(Metallica cover) 05:03

LOG
Exact Audio Copy V0.99 prebeta 5 from 4. May 2009

EAC extraction logfile from 21. January 2014, 16:51

Phalanx / Look Behind The Mask

Used drive : PIONEER DVD-RW DVR-116D Adapter: 0 ID: 0

Read mode : Secure
Utilize accurate stream : Yes
Defeat audio cache : Yes
Make use of C2 pointers : No

Read offset correction : 96
Overread into Lead-In and Lead-Out : No
Fill up missing offset samples with silence : Yes
Delete leading and trailing silent blocks : No
Null samples used in CRC calculations : Yes
Used interface : Native Win32 interface for Win NT & 2000

Used output format : User Defined Encoder
Selected bitrate : 32 kBit/s
Quality : High
Add ID3 tag : No
Command line compressor : C:\Program Files\Exact Audio Copy\Flac\flac.exe
Additional command line options : -6 -V %s


TOC of the extracted CD

Track | Start | Length | Start sector | End sector
---------------------------------------------------------
1 | 0:00.00 | 4:12.43 | 0 | 18942
2 | 4:12.43 | 1:34.74 | 18943 | 26066
3 | 5:47.42 | 4:27.08 | 26067 | 46099
4 | 10:14.50 | 4:01.22 | 46100 | 64196
5 | 14:15.72 | 3:55.34 | 64197 | 81855
6 | 18:11.31 | 4:55.65 | 81856 | 104045
7 | 23:07.21 | 5:22.38 | 104046 | 128233
8 | 28:29.59 | 6:00.58 | 128234 | 155291
9 | 34:30.42 | 5:10.01 | 155292 | 178542
10 | 39:40.43 | 5:03.53 | 178543 | 201320


Range status and errors

Selected range

Filename D:\Музыка\Lossless\Phalanx - Look Behind The Mask (1998) FLAC\Phalanx - Look Behind The Mask.wav

Peak level 100.0 %
Range quality 99.9 %
Copy CRC 5F2A09DE
Copy OK

No errors occurred


AccurateRip summary

Track 1 not present in database
Track 2 not present in database
Track 3 not present in database
Track 4 not present in database
Track 5 not present in database
Track 6 not present in database
Track 7 not present in database
Track 8 not present in database
Track 9 not present in database
Track 10 not present in database

None of the tracks are present in the AccurateRip database

End of status report

CUE
REM GENRE "Thrash Metal"
REM DATE 1998
REM DISCID 840A7C0A
REM COMMENT "ExactAudioCopy v0.99pb5"
PERFORMER "Phalanx"
TITLE "Look Behind The Mask"
FILE "Phalanx - Look Behind The Mask.flac" WAVE
TRACK 01 AUDIO
TITLE "Silent Consent"
PERFORMER "Phalanx"
FLAGS DCP
INDEX 01 00:00:00
TRACK 02 AUDIO
TITLE "Searching For Comfort"
PERFORMER "Phalanx"
FLAGS DCP
INDEX 00 04:10:42
INDEX 01 04:12:43
TRACK 03 AUDIO
TITLE "Face The Facts"
PERFORMER "Phalanx"
FLAGS DCP
INDEX 00 05:47:41
INDEX 01 05:47:42
TRACK 04 AUDIO
TITLE "State Of Mind"
PERFORMER "Phalanx"
FLAGS DCP
INDEX 00 10:12:49
INDEX 01 10:14:50
TRACK 05 AUDIO
TITLE "Yanus"
PERFORMER "Phalanx"
FLAGS DCP
INDEX 00 14:13:71
INDEX 01 14:15:72
TRACK 06 AUDIO
TITLE "Scratch The Surface"
PERFORMER "Phalanx"
FLAGS DCP
INDEX 00 18:09:30
INDEX 01 18:11:31
TRACK 07 AUDIO
TITLE "Why Speak?"
PERFORMER "Phalanx"
FLAGS DCP
INDEX 00 23:05:20
INDEX 01 23:07:21
TRACK 08 AUDIO
TITLE "Remnants "
PERFORMER "Phalanx"
FLAGS DCP
INDEX 00 28:27:58
INDEX 01 28:29:59
TRACK 09 AUDIO
TITLE "Listening To Yourself "
PERFORMER "Phalanx"
FLAGS DCP
INDEX 00 34:28:41
INDEX 01 34:30:42
TRACK 10 AUDIO
TITLE "Sandman (Charleston-Mix)(Metallica Cover)"
PERFORMER "Phalanx"
FLAGS DCP
INDEX 00 39:38:42
INDEX 01 39:40:43


Lossless
MP3

Этот альбом пожалуй чуть проще, чем первый, местами немного грувастый, но это его не портит, имхо.


Top
 Profile E-mail  
 
 
PostPosted: 21 Jan 2014 
Доктор энтомологии
User avatar
Joined: 22 Jan 2009
Posts: 9805
Lоcаtion: Даугавпилс
Age: 44
Name: Алексей
:thanx: for mp3


Top
 Profile  
 
 
PostPosted: 21 Jan 2014 
\m/ 80 см сала \m/
User avatar
Joined: 12 Mar 2012
Posts: 2590
Age: 26
Name: Nick
:thanx:

_________________
1990 AUROPHON BRAINSTORM (Germany) - lossless
1994 MAUSOLEUM CLASSIX (Belgium-Germany) - lossless
1998 VA - GRIM HARVEST - Complete Metal Massacre Volumes I-XII


Top
 Profile  
 
 
PostPosted: 21 Jan 2014 
Прокъмитолист
User avatar
Joined: 12 Aug 2007
Posts: 6577
Lоcаtion: Санктъ-Петербуркъ
Age: 51
Name: Олекъ
спасибо за лосика! :true:

_________________
прокъметол - это музыко, от которово есть прок (ы)


Top
 Profile  
 
 
PostPosted: 21 Jan 2014 
Персональный статус
User avatar
Joined: 04 Mar 2012
Posts: 239
Lоcаtion: Саратов
Name: Василий
Сердешно :thanx:


Top
 Profile E-mail  
 
 
PostPosted: 21 Jan 2014 
Дежурный по КУПу
User avatar
Joined: 17 Aug 2007
Posts: 5871
Age: 51
Name: Ге
:thanx:

_________________
http://jp-mania.ru/
http://jp-tourdates.ucoz.ru/


Top
 Profile  
 
 
PostPosted: 22 Jan 2014 
Хиппей (support team)
User avatar
Joined: 30 Jul 2007
Posts: 113573
Lоcаtion: Киев (Kyiv, UA)
Age: 46
Name: Andrey
:thanx:

mirror: Narod l M-Cloud

_________________


Top
 Profile E-mail  
 
 
PostPosted: 22 Jan 2014 
Хиппей (support team)
User avatar
Joined: 30 Jul 2007
Posts: 113573
Lоcаtion: Киев (Kyiv, UA)
Age: 46
Name: Andrey
Только начал слушать...
church wrote:
1. Silent Consent 04:12

Это кавер или пародия на Метлу? :crazy:

_________________


Top
 Profile E-mail  
 
 
PostPosted: 22 Jan 2014 
Хиппей (support team)
User avatar
Joined: 30 Jul 2007
Posts: 113573
Lоcаtion: Киев (Kyiv, UA)
Age: 46
Name: Andrey
И еще есть такая же композиция (с почти идентичным названием) у Содома :lloo:

phpBB [youtube]

_________________


Top
 Profile E-mail  
 
 
PostPosted: 22 Jan 2014 
Хиппей (support team)
User avatar
Joined: 30 Jul 2007
Posts: 113573
Lоcаtion: Киев (Kyiv, UA)
Age: 46
Name: Andrey
Вы мня простите, если шо, но альбом хрень обыкновенная :pardon:

_________________


Top
 Profile E-mail  
 
 
PostPosted: 29 Jan 2014 
\m/ 80 см сала \m/
User avatar
Joined: 12 Mar 2012
Posts: 2590
Age: 26
Name: Nick
Странных параллелей с Mortal Sin меньше по сравнению с дебютником :pardon:
Альбом понравился, хотя при прослушивании не пропадало чувство, что слушаю что-то из "современного метала" :thanx:

_________________
1990 AUROPHON BRAINSTORM (Germany) - lossless
1994 MAUSOLEUM CLASSIX (Belgium-Germany) - lossless
1998 VA - GRIM HARVEST - Complete Metal Massacre Volumes I-XII


Top
 Profile  
 
 
PostPosted: 30 Jan 2014 
Хиппей (support team)
User avatar
Joined: 30 Jul 2007
Posts: 113573
Lоcаtion: Киев (Kyiv, UA)
Age: 46
Name: Andrey
Everhard wrote:
хотя при прослушивании не пропадало чувство, что слушаю что-то из "современного метала"

Собранного "из старых запчастей" :lloo:

_________________


Top
 Profile E-mail  
 
 
PostPosted: 01 Feb 2014 
Персональный статус
Joined: 19 Jul 2010
Posts: 282
Lоcаtion: Москва
Name: Вадим
С дебютником мало общего. Треша тут нет совсем, больше похоже на немелодичный прог. Несмотря на это, альбом мне нравится.


Top
 Profile E-mail  
 
 
PostPosted: 14 Feb 2015 
Доктор энтомологии
User avatar
Joined: 22 Jan 2009
Posts: 9805
Lоcаtion: Даугавпилс
Age: 44
Name: Алексей
да, дебутник в разы лучше :lob:


Top
 Profile  
 
Display posts from previous:  Sort by  
Post new topic Reply to topic  [ 14 posts ] 

All times are UTC + 3 hours


Who is online

Users browsing this forum: No registered users and 1 guest


You cannot post new topics in this forum
You cannot reply to topics in this forum
You cannot edit your posts in this forum
You cannot delete your posts in this forum
You cannot post attachments in this forum

Search for:
Яндекс.Метрика
Powered by phpBB © 2000, 2002, 2005, 2007 phpBB Group