\m/ 80's metal \m/

Информационно-аналитический форум "80 см пыли" (In Search We Trust) "У нас никто никуда не спешит"
Me For You - http://me-4u.com
It is currently 26 Oct 2020

All times are UTC + 3 hours

Spoiler
Chat - temporary registration for foreign users (please leave your application here)







Post new topic Reply to topic  [ 11 posts ] 
Author Message
 
PostPosted: 25 Nov 2013 
5cm
User avatar
Joined: 29 Mar 2013
Posts: 73
Lоcаtion: Hungary
Age: 47
Name: .
Patriarch - Prophecy 1990
Image
Country of origin: Belgium
Location: Herenthout, Antwerp
Status: Active
Formed in: 1988
Genre: Power/Thrash Metal
Years active: 1983-1988 (as Pariah), 1988-present


01. Intro 00:19
02. At the Warlord's Command
03. Dance, Children of the Moon
04. Shadowland
05. Father Kreator
06. Castle of Darkness
07. Kmar - Q - Luque (Island of Insanity)
08. Prophecy
09. Pilgrims of the Dark Age
10. Outro

Code:
http://www.metal-archives.com/albums/Patriarch/Prophecy/6743


Top
 Profile E-mail  
 
 
PostPosted: 25 Nov 2013 
Труъ
User avatar
Joined: 27 Feb 2009
Posts: 186
Lоcаtion: Питер
Age: 53
Name: Олег
http://rutracker.org/forum/viewtopic.php?t=4178737


Top
 Profile  
 
 
PostPosted: 25 Nov 2013 
5cm
User avatar
Joined: 29 Mar 2013
Posts: 73
Lоcаtion: Hungary
Age: 47
Name: .
http://rutracker.org/forum/viewtopic.php?t=4178737

No seed! :(


Top
 Profile E-mail  
 
 
PostPosted: 25 Nov 2013 
адын фелософъ прокметолу
User avatar
Joined: 22 Oct 2009
Posts: 2841
Lоcаtion: Сочи
Age: 43
Name: Сергей
I have full Discography. Могу залить - только свисните :guba:
и по моему на форуме уже топик с этой группой где-то был :vic:

_________________
До конца 2020 года осталось ... дней


Last edited by wizard12 on 25 Nov 2013, edited 1 time in total.

Top
 Profile E-mail  
 
 
PostPosted: 25 Nov 2013 
5cm
User avatar
Joined: 29 Mar 2013
Posts: 73
Lоcаtion: Hungary
Age: 47
Name: .
I have full Discography. Могу залить - только свисните :guba:

Good! Thanks! :thanx:


Top
 Profile E-mail  
 
 
PostPosted: 25 Nov 2013 
адын фелософъ прокметолу
User avatar
Joined: 22 Oct 2009
Posts: 2841
Lоcаtion: Сочи
Age: 43
Name: Сергей
Patriarch - Prophecy 1990. mp3
Need more albums?

_________________
До конца 2020 года осталось ... дней


Top
 Profile E-mail  
 
 
PostPosted: 25 Nov 2013 
5cm
User avatar
Joined: 29 Mar 2013
Posts: 73
Lоcаtion: Hungary
Age: 47
Name: .

Thank You! :thanx: :thanx:


Top
 Profile E-mail  
 
 
PostPosted: 25 Nov 2013 
спирт 100%
User avatar
Joined: 22 Sep 2008
Posts: 4594
Age: 49
Name: Саня
А ,10 трековый лось не видать :pardon:


Top
 Profile  
 
 
PostPosted: 25 Nov 2013 
Хиппей (support team)
User avatar
Joined: 30 Jul 2007
Posts: 119421
Lоcаtion: Киев (Kyiv, UA)
Age: 47
Name: Andrey
А никто лося и не просил.

Запрос более чем странный :vic: Этот альбом никогда не был редкостью.

_________________


Top
 Profile E-mail  
 
 
PostPosted: 25 Nov 2013 
Хиппей (support team)
User avatar
Joined: 30 Jul 2007
Posts: 119421
Lоcаtion: Киев (Kyiv, UA)
Age: 47
Name: Andrey
EP -1998 - :arrow: viewtopic.php?f=121&t=7059

_________________


Top
 Profile E-mail  
 
 
PostPosted: 26 Nov 2013 
Хиппей (support team)
User avatar
Joined: 30 Jul 2007
Posts: 119421
Lоcаtion: Киев (Kyiv, UA)
Age: 47
Name: Andrey
Patriarch - 1990 - Prophecy [flac]

Image

    1. Intro (instrumental) - 00:19
    2. At the Warlord's Command - 03:50
    3. Dance, Children of the Moon - 05:09
    4. Shadowland - 07:24
    5. Father Kreator - 04:05
    6. Castle of Darkness - 04:10
    7. Kmar - Q - Luque (Island of Insanity) - 06:47
    8. Prophecy (instrumental) - 03:41
    9. Pilgrims of the Dark Age - 04:40
    10. Outro (instrumental) - 00:18

    TPT: 40:23

mirror: Narod l M-Cloud

log
EAC extraction logfile from 6. December 2008, 15:02 for CD
Patriarch / Prophecy

Used drive : LITE-ON DVDRW SHM-165P6S Adapter: 1 ID: 1
Read mode : Secure with NO C2, accurate stream, disable cache
Read offset correction : 6
Overread into Lead-In and Lead-Out : No

Used output format : Internal WAV Routines
44.100 Hz; 16 Bit; Stereo

Other options :
Fill up missing offset samples with silence : Yes
Delete leading and trailing silent blocks : No
Installed external ASPI interface


Range status and errors
Selected range
Filename J:\MMT\Patriarch - Prophecy.wav

Peak level 98.6 %
Range quality 100.0 %
CRC BDE3490E
Copy OK

No errors occured

End of status report

cue
REM GENRE "Heavy Metal"
REM DATE 1990
REM DISCID 4C097808
REM COMMENT "ExactAudioCopy v0.95b4"
PERFORMER "Patriarch"
TITLE "Prophecy"
FILE "Patriarch - Prophecy.wav" WAVE
TRACK 01 AUDIO
TITLE "At The Warlord's Command"
PERFORMER "Patriarch"
INDEX 01 00:00:00
TRACK 02 AUDIO
TITLE "Dance, Children Of The Moon"
PERFORMER "Patriarch"
INDEX 00 04:09:15
INDEX 01 04:09:25
TRACK 03 AUDIO
TITLE "Shadowland"
PERFORMER "Patriarch"
INDEX 00 09:18:26
INDEX 01 09:18:42
TRACK 04 AUDIO
TITLE "Father Kreator"
PERFORMER "Patriarch"
INDEX 00 16:42:54
INDEX 01 16:42:62
TRACK 05 AUDIO
TITLE "Castle Of Darkness"
PERFORMER "Patriarch"
INDEX 01 20:47:72
TRACK 06 AUDIO
TITLE "Kmar-Q-Luque (Island Of Insanity)"
PERFORMER "Patriarch"
INDEX 01 24:58:12
TRACK 07 AUDIO
TITLE "Prophecy"
PERFORMER "Patriarch"
INDEX 01 31:44:60
TRACK 08 AUDIO
TITLE "Pilgrims Of The Dark Age"
PERFORMER "Patriarch"
INDEX 01 35:25:62

_________________


Top
 Profile E-mail  
 
Display posts from previous:  Sort by  
Post new topic Reply to topic  [ 11 posts ] 

All times are UTC + 3 hours


Who is online

Users browsing this forum: No registered users and 1 guest


You cannot post new topics in this forum
You cannot reply to topics in this forum
You cannot edit your posts in this forum
You cannot delete your posts in this forum
You cannot post attachments in this forum

Search for:
Яндекс.Метрика
Powered by phpBB © 2000, 2002, 2005, 2007 phpBB Group