\m/ 80's metal \m/

Информационно-аналитический форум "80 см пыли" (In Search We Trust) "У нас никто никуда не спешит"
Me For You - http://me-4u.com
It is currently 29 Oct 2020

All times are UTC + 3 hours

Spoiler
Chat - temporary registration for foreign users (please leave your application here)







Post new topic Reply to topic  [ 4 posts ] 
Author Message
 
PostPosted: 23 Nov 2012 
Хиппей (support team)
User avatar
Joined: 30 Jul 2007
Posts: 119447
Lоcаtion: Киев (Kyiv, UA)
Age: 47
Name: Andrey
Pokolgep - 2004 - A Tulelo [flac]

Image

Genre: Heavy Metal
Location: Hungary
Format: flac + cue + log + no scans
Size: 338 Mb



Line-up:

József Rudán - vocals
Gábor Kukovecz - guitars
Dávid Nagy- guitars
Csaba Pintér - bass
Ede Szilágyi - drums

    1. Farkasok dala - 04:30
    2. Kánaán - 05:00
    3. Elveszett percek - 03:27
    4. Szívedből tisztán - 04:25
    5. A túlsó part (In Memory of K. J.) - 03:50
    6. A túlélő - 04:07
    7. Dolgozik a vér - 03:40
    8. Sza-rock rá - 03:27
    9. Mindörökké - 04:45
    10. Még ártatlanul (Rocker nemzedék) - 04:30
    11. Ide tartozom - 04:32

    TPT: 46:13

Image

Thanx to qux from MMT

log
Exact Audio Copy V0.99 prebeta 5 from 4. May 2009

EAC extraction logfile from 7. May 2010, 19:56

Pokolgйp / A Tъlйlх

Used drive : HL-DT-STDVDRAM GSA-H42N Adapter: 0 ID: 0

Read mode : Secure
Utilize accurate stream : Yes
Defeat audio cache : Yes
Make use of C2 pointers : No

Read offset correction : 667
Overread into Lead-In and Lead-Out : No
Fill up missing offset samples with silence : Yes
Delete leading and trailing silent blocks : No
Null samples used in CRC calculations : Yes
Used interface : Installed external ASPI interface

Used output format : User Defined Encoder
Selected bitrate : 1024 kBit/s
Quality : High
Add ID3 tag : No
Command line compressor : C:\Program Files\Exact Audio Copy\Flac\flac.exe
Additional command line options : -V -8 -T "artist=%a" -T "title=%t" -T "album=%g" -T "date=%y" -T "tracknumber=%n" -T "genre=%m" %s


TOC of the extracted CD

Track | Start | Length | Start sector | End sector
---------------------------------------------------------
1 | 0:00.00 | 4:18.11 | 0 | 19360
2 | 4:18.11 | 5:06.07 | 19361 | 42317
3 | 9:24.18 | 3:30.03 | 42318 | 58070
4 | 12:54.21 | 4:37.60 | 58071 | 78905
5 | 17:32.06 | 3:55.00 | 78906 | 96530
6 | 21:27.06 | 4:14.60 | 96531 | 115640
7 | 25:41.66 | 3:41.17 | 115641 | 132232
8 | 29:23.08 | 3:31.26 | 132233 | 148083
9 | 32:54.34 | 4:46.20 | 148084 | 169553
10 | 37:40.54 | 4:33.49 | 169554 | 190077
11 | 42:14.28 | 4:40.60 | 190078 | 211137


Range status and errors

Selected range

Filename E:\POKOLGEP [2004] [CD] Tulelo\Pokolgйp - A Tъlйlх.wav

Peak level 97.7 %
Range quality 100.0 %
Copy CRC A5F712CE
Copy OK

No errors occurred


AccurateRip summary

Track 1 accurately ripped (confidence 2) [323C92B0]
Track 2 accurately ripped (confidence 2) [304D7050]
Track 3 accurately ripped (confidence 2) [E0041BC6]
Track 4 accurately ripped (confidence 2) [CAB81E54]
Track 5 accurately ripped (confidence 2) [F7266C84]
Track 6 accurately ripped (confidence 2) [0216AA5B]
Track 7 accurately ripped (confidence 2) [C150A58A]
Track 8 accurately ripped (confidence 2) [53014664]
Track 9 accurately ripped (confidence 2) [5BD309B2]
Track 10 accurately ripped (confidence 2) [F32F1085]
Track 11 accurately ripped (confidence 2) [F57ABEE1]

All tracks accurately ripped

End of status report

cue
REM GENRE "Heavy Metal"
REM DATE 2004
REM DISCID A00AFF0B
REM COMMENT "ExactAudioCopy v0.99pb5"
PERFORMER "Pokolgйp"
TITLE "A Tъlйlх"
FILE "Pokolgйp - A Tъlйlх.flac" WAVE
TRACK 01 AUDIO
TITLE "Farkasok Dala"
PERFORMER "Pokolgйp"
INDEX 01 00:00:00
TRACK 02 AUDIO
TITLE "Kбnaбn"
PERFORMER "Pokolgйp"
INDEX 00 04:16:12
INDEX 01 04:18:11
TRACK 03 AUDIO
TITLE "Elveszett Percek"
PERFORMER "Pokolgйp"
INDEX 00 09:22:18
INDEX 01 09:24:18
TRACK 04 AUDIO
TITLE "Szнvedbхl Tisztбn"
PERFORMER "Pokolgйp"
INDEX 00 12:52:21
INDEX 01 12:54:21
TRACK 05 AUDIO
TITLE "A Tъlsу Part (In Memory Of K.J.)"
PERFORMER "Pokolgйp"
INDEX 00 17:30:07
INDEX 01 17:32:06
TRACK 06 AUDIO
TITLE "A Tъlйlх"
PERFORMER "Pokolgйp"
INDEX 00 21:25:06
INDEX 01 21:27:06
TRACK 07 AUDIO
TITLE "Dolgozik A Vйr"
PERFORMER "Pokolgйp"
INDEX 00 25:39:66
INDEX 01 25:41:66
TRACK 08 AUDIO
TITLE "Sza-rock-rб"
PERFORMER "Pokolgйp"
INDEX 00 29:21:08
INDEX 01 29:23:08
TRACK 09 AUDIO
TITLE "Mindцrцkkй"
PERFORMER "Pokolgйp"
INDEX 00 32:52:34
INDEX 01 32:54:34
TRACK 10 AUDIO
TITLE "Mйg Бrtatlanul (Rocker Nemzedйk)"
PERFORMER "Pokolgйp"
INDEX 00 37:38:54
INDEX 01 37:40:54
TRACK 11 AUDIO
TITLE "Ide Tartozom"
PERFORMER "Pokolgйp"
INDEX 00 42:12:28
INDEX 01 42:14:28


MultiUp l Narod

_________________


Top
 Profile E-mail  
 
 
PostPosted: 23 Nov 2012 
Прокъмитолист
User avatar
Joined: 12 Aug 2007
Posts: 6776
Lоcаtion: Санктъ-Петербуркъ
Age: 53
Name: Олекъ
поправь название, Андрюх - A Tulelo ;)

_________________
прокъметол - это музыко, от которово есть прок (ы)


Top
 Profile  
 
 
PostPosted: 23 Nov 2012 
Хиппей (support team)
User avatar
Joined: 30 Jul 2007
Posts: 119447
Lоcаtion: Киев (Kyiv, UA)
Age: 47
Name: Andrey
Спасибо, подправил =)
Хотя оно в двух вариантах пишецо :vic: Умляуты ж точно ставить не буду. Поисковики их плохо видят :fingal:

_________________


Top
 Profile E-mail  
 
 
PostPosted: 23 Nov 2012 
ТрэшЭрос
User avatar
Joined: 18 Jul 2011
Posts: 2307
Lоcаtion: Гулькевичи
Age: 45
Name: Александр
Scatterbrain, big сэнкс :thanx:

_________________
Thrash no trash!!!


Top
 Profile E-mail  
 
Display posts from previous:  Sort by  
Post new topic Reply to topic  [ 4 posts ] 

All times are UTC + 3 hours


Who is online

Users browsing this forum: No registered users and 1 guest


You cannot post new topics in this forum
You cannot reply to topics in this forum
You cannot edit your posts in this forum
You cannot delete your posts in this forum
You cannot post attachments in this forum

Search for:
Яндекс.Метрика
Powered by phpBB © 2000, 2002, 2005, 2007 phpBB Group