\m/ 80's metal \m/

Информационно-аналитический форум "80 см пыли" (In Search We Trust) "У нас никто никуда не спешит"
Me For You - http://me-4u.com
It is currently 29 Oct 2020

All times are UTC + 3 hours

Spoiler
Chat - temporary registration for foreign users (please leave your application here)







Post new topic Reply to topic  [ 75 posts ]  Go to page Previous  1, 2, 3, 4
Author Message
 
PostPosted: 02 Feb 2014 
Генеральный thrasher
User avatar
Joined: 03 Oct 2008
Posts: 3751
Lоcаtion: Ханты-Мансийский АО
Age: 45
Name: Сергей
А предыдущего альбома Is It A Human нет в наличии?


На MMT лежит... :lloo:


Top
 Profile  
 
 
PostPosted: 02 Feb 2014 
Генеральный thrasher
User avatar
Joined: 03 Oct 2008
Posts: 3751
Lоcаtion: Ханты-Мансийский АО
Age: 45
Name: Сергей
Да и у Оксаны лежит на форуме.


Top
 Profile  
 
 
PostPosted: 02 Feb 2014 
Персональный статус
Joined: 19 Jul 2010
Posts: 282
Lоcаtion: Москва
Name: Вадим
А как туда попасть?


Top
 Profile E-mail  
 
 
PostPosted: 02 Feb 2014 
Хиппей (support team)
User avatar
Joined: 30 Jul 2007
Posts: 119447
Lоcаtion: Киев (Kyiv, UA)
Age: 47
Name: Andrey
Scatterbrain wrote:
О, надо темку немного посортировать =)

Перечитал. Не буду :pardon:

_________________


Top
 Profile E-mail  
 
 
PostPosted: 02 Feb 2014 
Хиппей (support team)
User avatar
Joined: 30 Jul 2007
Posts: 119447
Lоcаtion: Киев (Kyiv, UA)
Age: 47
Name: Andrey
А как туда попасть?

http://www.darksage.ru - форум - регистрация :dance:

_________________


Top
 Profile E-mail  
 
 
PostPosted: 02 Feb 2014 
Персональный статус
Joined: 19 Jul 2010
Posts: 282
Lоcаtion: Москва
Name: Вадим
Cпасибо.


Top
 Profile E-mail  
 
 
PostPosted: 02 Feb 2014 
Хиппей (support team)
User avatar
Joined: 30 Jul 2007
Posts: 119447
Lоcаtion: Киев (Kyiv, UA)
Age: 47
Name: Andrey
Ха, а там ссылка на альбом "Прэй" сдохла :pardon:

_________________


Top
 Profile E-mail  
 
 
PostPosted: 02 Feb 2014 
Хиппей (support team)
User avatar
Joined: 30 Jul 2007
Posts: 119447
Lоcаtion: Киев (Kyiv, UA)
Age: 47
Name: Andrey
Ну тогда качаем отседова http://rutracker.org/forum/viewtopic.php?t=4350363 :pardon:

_________________


Top
 Profile E-mail  
 
 
PostPosted: 02 Feb 2014 
DarkSage
User avatar
Joined: 24 Sep 2009
Posts: 1211
Lоcаtion: Moscow
Name: Оксана
угу, спасибо, что вспомнили,и я ссылку уже обновила из этого тр-источника))) сам рип ilijan [mmt]

_________________
Image.Image


Top
 Profile E-mail  
 
 
PostPosted: 02 Feb 2014 
Хиппей (support team)
User avatar
Joined: 30 Jul 2007
Posts: 119447
Lоcаtion: Киев (Kyiv, UA)
Age: 47
Name: Andrey
И я ща дозаливаю как раз =)

_________________


Top
 Profile E-mail  
 
 
PostPosted: 02 Feb 2014 
Хиппей (support team)
User avatar
Joined: 30 Jul 2007
Posts: 119447
Lоcаtion: Киев (Kyiv, UA)
Age: 47
Name: Andrey
Panacea - 1995 - Pray (Teichiku Records TECW-25150) [flac]

Image

mirror: Narod l M-Cloud

log
Exact Audio Copy V0.99 prebeta 5 from 4. May 2009

EAC extraction logfile from 13. November 2012, 11:15

Panacea / Pray

Used drive : ATAPI iHAS624 B Adapter: 2 ID: 0

Read mode : Secure
Utilize accurate stream : Yes
Defeat audio cache : Yes
Make use of C2 pointers : No

Read offset correction : 6
Overread into Lead-In and Lead-Out : No
Fill up missing offset samples with silence : Yes
Delete leading and trailing silent blocks : No
Null samples used in CRC calculations : Yes
Used interface : Installed external ASPI interface

Used output format : User Defined Encoder
Selected bitrate : 40 kBit/s
Quality : High
Add ID3 tag : No
Command line compressor : C:\Program Files\Exact Audio Copy\Flac\flac.exe
Additional command line options : -6 -V %s


TOC of the extracted CD

Track | Start | Length | Start sector | End sector
---------------------------------------------------------
1 | 0:00.00 | 3:24.35 | 0 | 15334
2 | 3:24.35 | 4:06.00 | 15335 | 33784
3 | 7:30.35 | 4:13.00 | 33785 | 52759
4 | 11:43.35 | 4:21.00 | 52760 | 72334
5 | 16:04.35 | 3:57.00 | 72335 | 90109
6 | 20:01.35 | 2:29.67 | 90110 | 101351
7 | 22:31.27 | 3:52.10 | 101352 | 118761
8 | 26:23.37 | 2:55.73 | 118762 | 131959
9 | 29:19.35 | 3:25.00 | 131960 | 147334
10 | 32:44.35 | 3:06.72 | 147335 | 161356
11 | 35:51.32 | 4:38.03 | 161357 | 182209
12 | 40:29.35 | 5:48.02 | 182210 | 208311
13 | 46:17.37 | 4:30.00 | 208312 | 228561


Range status and errors

Selected range

Filename D:\Download\Panacea - Pray.wav

Peak level 97.2 %
Range quality 100.0 %
Copy CRC 1DAD7519
Copy OK

No errors occurred


AccurateRip summary

Track 1 not present in database
Track 2 not present in database
Track 3 not present in database
Track 4 not present in database
Track 5 not present in database
Track 6 not present in database
Track 7 not present in database
Track 8 not present in database
Track 9 not present in database
Track 10 not present in database
Track 11 not present in database
Track 12 not present in database
Track 13 not present in database

None of the tracks are present in the AccurateRip database

End of status report

cue
REM GENRE "Thrash Metal"
REM DATE 1995
REM DISCID AE0BE70D
REM COMMENT "ExactAudioCopy v0.99pb5"
PERFORMER "Panacea"
TITLE "Pray"
FILE "Panacea - Pray.flac" WAVE
TRACK 01 AUDIO
TITLE "Caught In A Dream"
PERFORMER "Panacea"
INDEX 01 00:00:00
TRACK 02 AUDIO
TITLE "I"
PERFORMER "Panacea"
INDEX 01 03:24:35
TRACK 03 AUDIO
TITLE "Drap Monotony"
PERFORMER "Panacea"
INDEX 01 07:30:35
TRACK 04 AUDIO
TITLE "Away From Myself"
PERFORMER "Panacea"
INDEX 01 11:43:35
TRACK 05 AUDIO
TITLE "World Of Ideas"
PERFORMER "Panacea"
INDEX 01 16:04:35
TRACK 06 AUDIO
TITLE "The Dance"
PERFORMER "Panacea"
INDEX 01 20:01:35
TRACK 07 AUDIO
TITLE "Space Trip"
PERFORMER "Panacea"
INDEX 01 22:31:27
TRACK 08 AUDIO
TITLE "Pray"
PERFORMER "Panacea"
INDEX 01 26:23:37
TRACK 09 AUDIO
TITLE "No Resource"
PERFORMER "Panacea"
INDEX 01 29:19:35
TRACK 10 AUDIO
TITLE "Don't Think"
PERFORMER "Panacea"
INDEX 01 32:44:35
TRACK 11 AUDIO
TITLE "Segregation"
PERFORMER "Panacea"
INDEX 01 35:51:32
TRACK 12 AUDIO
TITLE "Decadence (Bonus Track)"
PERFORMER "Panacea"
INDEX 01 40:29:35
TRACK 13 AUDIO
TITLE "Blinded (Bonus Track)"
PERFORMER "Panacea"
INDEX 01 46:17:37

_________________


Top
 Profile E-mail  
 
 
PostPosted: 03 Feb 2014 
Хиппей (support team)
User avatar
Joined: 30 Jul 2007
Posts: 119447
Lоcаtion: Киев (Kyiv, UA)
Age: 47
Name: Andrey
Panacea - 1993 - Is It A Human [flac]

Image

mirror: M-Cloud l Narod

log
Exact Audio Copy V0.99 prebeta 5 from 4. May 2009

EAC extraction logfile from 9. August 2010, 22:48

Panacea / Is It A Human ?

Used drive : TSSTcorpCDDVDW SH-S203D Adapter: 1 ID: 1

Read mode : Secure
Utilize accurate stream : Yes
Defeat audio cache : Yes
Make use of C2 pointers : No

Read offset correction : 6
Overread into Lead-In and Lead-Out : No
Fill up missing offset samples with silence : Yes
Delete leading and trailing silent blocks : No
Null samples used in CRC calculations : Yes
Used interface : Native Win32 interface for Win NT & 2000

Used output format : Internal WAV Routines
Sample format : 44.100 Hz; 16 Bit; Stereo


TOC of the extracted CD

Track | Start | Length | Start sector | End sector
---------------------------------------------------------
1 | 0:00.00 | 5:20.07 | 0 | 24006
2 | 5:20.07 | 4:19.25 | 24007 | 43456
3 | 9:39.32 | 6:45.00 | 43457 | 73831
4 | 16:24.32 | 6:28.15 | 73832 | 102946
5 | 22:52.47 | 5:20.18 | 102947 | 126964
6 | 28:12.65 | 6:53.50 | 126965 | 157989


Range status and errors

Selected range

Filename D:\На телефон\НОВОЕ\Panacea - Is It A Human.wav

Peak level 94.1 %
Range quality 100.0 %
Copy CRC B06B371F
Copy OK

No errors occurred


AccurateRip summary

Track 1 not present in database
Track 2 not present in database
Track 3 not present in database
Track 4 not present in database
Track 5 not present in database
Track 6 not present in database

None of the tracks are present in the AccurateRip database

End of status report

cue
REM GENRE "Thrash Metal"
REM DATE 1993
REM SOURCE "KMA"
REM DISCID 51083A06
REM COMMENT "ExactAudioCopy v0.99pb5"
PERFORMER "Panacea"
TITLE "Is It A Human ?"
FILE "Panacea - Is It A Human.flac" WAVE
TRACK 01 AUDIO
TITLE "Megalomania"
PERFORMER "Panacea"
INDEX 01 00:00:00
TRACK 02 AUDIO
TITLE "Desert Storm"
PERFORMER "Panacea"
INDEX 01 05:20:07
TRACK 03 AUDIO
TITLE "Is It A Human ?"
PERFORMER "Panacea"
INDEX 01 09:39:32
TRACK 04 AUDIO
TITLE "Depression"
PERFORMER "Panacea"
INDEX 01 16:24:32
TRACK 05 AUDIO
TITLE "Masquerade"
PERFORMER "Panacea"
INDEX 01 22:52:47
TRACK 06 AUDIO
TITLE "Delusion"
PERFORMER "Panacea"
INDEX 01 28:12:65

_________________


Top
 Profile E-mail  
 
 
PostPosted: 03 Feb 2014 
Дежурный по КУПу
User avatar
Joined: 17 Aug 2007
Posts: 5871
Age: 52
Name: Ге
:thanx:
и
:thanx:

_________________
http://jp-mania.ru/
http://jp-tourdates.ucoz.ru/


Top
 Profile  
 
 
PostPosted: 03 Feb 2014 
Хиппей (support team)
User avatar
Joined: 30 Jul 2007
Posts: 119447
Lоcаtion: Киев (Kyiv, UA)
Age: 47
Name: Andrey
А вот, кстати сказать, альбом за 93-й год весьма неплох и даже хорош. Уравновешенный и типичный трэш безо всяких там грувов или прочих инфлюенций. Классический даже. Только вот ничем особо не выделяется. Но зато и мало на кого похож. Но собственного имиджевого звучания у группы почему-то нет. Странное дело-с :vic:

6/10

_________________


Top
 Profile E-mail  
 
 
PostPosted: 03 Feb 2014 
Персональный статус
Joined: 19 Jul 2010
Posts: 282
Lоcаtion: Москва
Name: Вадим
Только для любителей подобной музыки. Согласен. Но для любителей он хорош.


Top
 Profile E-mail  
 
Display posts from previous:  Sort by  
Post new topic Reply to topic  [ 75 posts ]  Go to page Previous  1, 2, 3, 4

All times are UTC + 3 hours


Who is online

Users browsing this forum: No registered users and 1 guest


You cannot post new topics in this forum
You cannot reply to topics in this forum
You cannot edit your posts in this forum
You cannot delete your posts in this forum
You cannot post attachments in this forum

Search for:
Яндекс.Метрика
Powered by phpBB © 2000, 2002, 2005, 2007 phpBB Group