\m/ 80's metal \m/

Информационно-аналитический форум "80 см пыли" (In Search We Trust) "У нас никто никуда не спешит"
Me For You - http://me-4u.com
It is currently 29 Oct 2020

All times are UTC + 3 hours

Spoiler
Chat - temporary registration for foreign users (please leave your application here)







Post new topic Reply to topic  [ 18 posts ] 
Author Message
 
PostPosted: 08 Apr 2012 
Работнечег
User avatar
Joined: 28 Aug 2007
Posts: 6363
Lоcаtion: г. Москва
Age: 31
Name: Дима
Image

Band: Philadelphia
Album: Search And Destroy
Year: 1985 (Reissued In 2000)
Label: Magdalene Records
Genre: Heavy Metal
Coutry: USA
Format: Flac + Log + Cue + Covers
Size: 443 Mb

Line-Up:
Brian Martini - Drums
Phil Scholling - Guitars
Ronn Flowers - Guitars
Brian Clark - Vocals, Bass


Tracklist:
1. Search and Destroy 06:00
2. Bobby's Song 03:52
3. Oh My Boy 05:11
4. Judgement Day 03:51
5. Mirror Man 03:10
6. Fastrack 04:32
7. Showdown 04:27
8. Decision Time 05:57
Bonus tracks on Blizzard Records reissue in 2000:
9. Please My Love 5:21
10. Kids in America 3:55
11. Warlord (live) 7:24
12. Razor's Edge (live) 5:55
13. One Way Out (live) 5:05

"Please My Love" and "Kids in America" were recorded during a reunion in 1999, while the live songs were recorded at the Cornerstone Christian music festival in 1986.

LOG
Exact Audio Copy V0.99 prebeta 5 from 4. May 2009

EAC extraction logfile from 29. March 2012, 21:22

Philadelphia / Search And Destroy

Used drive : PIONEER DVD-RW DVR-116D Adapter: 0 ID: 0

Read mode : Secure
Utilize accurate stream : Yes
Defeat audio cache : Yes
Make use of C2 pointers : No

Read offset correction : 96
Overread into Lead-In and Lead-Out : No
Fill up missing offset samples with silence : Yes
Delete leading and trailing silent blocks : No
Null samples used in CRC calculations : Yes
Used interface : Native Win32 interface for Win NT & 2000

Used output format : User Defined Encoder
Selected bitrate : 32 kBit/s
Quality : High
Add ID3 tag : No
Command line compressor : C:\Program Files\Exact Audio Copy\Flac\flac.exe
Additional command line options : -6 -V %s


TOC of the extracted CD

Track | Start | Length | Start sector | End sector
---------------------------------------------------------
1 | 0:00.00 | 6:00.61 | 0 | 27060
2 | 6:00.61 | 3:52.39 | 27061 | 44499
3 | 9:53.25 | 5:11.48 | 44500 | 67872
4 | 15:04.73 | 3:51.63 | 67873 | 85260
5 | 18:56.61 | 3:10.11 | 85261 | 99521
6 | 22:06.72 | 4:32.28 | 99522 | 119949
7 | 26:39.25 | 4:27.62 | 119950 | 140036
8 | 31:07.12 | 5:57.31 | 140037 | 166842
9 | 37:04.43 | 5:21.52 | 166843 | 190969
10 | 42:26.20 | 3:55.09 | 190970 | 208603
11 | 46:21.29 | 7:24.02 | 208604 | 241905
12 | 53:45.31 | 5:55.43 | 241906 | 268573
13 | 59:40.74 | 5:05.37 | 268574 | 291485


Range status and errors

Selected range

Filename D:\Музыка\Lossless\Philadelphia - Search And Destriy (1985) (Reissue In 2000)\Philadelphia - Search And Destroy.wav

Peak level 100.0 %
Range quality 99.9 %
Copy CRC 9CB79413
Copy OK

No errors occurred


AccurateRip summary

Track 1 accurately ripped (confidence 1) [BF0196A1]
Track 2 accurately ripped (confidence 1) [182C8EC9]
Track 3 accurately ripped (confidence 1) [4500C821]
Track 4 accurately ripped (confidence 1) [DDCA93F3]
Track 5 accurately ripped (confidence 1) [4DFDB9C3]
Track 6 accurately ripped (confidence 1) [007D984A]
Track 7 accurately ripped (confidence 1) [F6B4910F]
Track 8 accurately ripped (confidence 1) [EC5325D6]
Track 9 accurately ripped (confidence 1) [29177644]
Track 10 accurately ripped (confidence 1) [CF2ADB66]
Track 11 accurately ripped (confidence 1) [FC9CF9A8]
Track 12 accurately ripped (confidence 1) [A4AC7F7F]
Track 13 accurately ripped (confidence 1) [DED97761]

All tracks accurately ripped

End of status report

CUE
REM GENRE "Heavy Metal"
REM DATE 2000
REM DISCID BD0F2E0D
REM COMMENT "ExactAudioCopy v0.99pb5"
PERFORMER "Philadelphia"
TITLE "Search And Destroy"
FILE "Philadelphia - Search And Destroy.flac" WAVE
TRACK 01 AUDIO
TITLE "Search And Destroy"
PERFORMER "Philadelphia"
INDEX 01 00:00:00
TRACK 02 AUDIO
TITLE "Bobby's Song"
PERFORMER "Philadelphia"
INDEX 00 05:58:61
INDEX 01 06:00:61
TRACK 03 AUDIO
TITLE "Oh My Boy"
PERFORMER "Philadelphia"
INDEX 00 09:51:25
INDEX 01 09:53:25
TRACK 04 AUDIO
TITLE "Judgement Day"
PERFORMER "Philadelphia"
INDEX 00 15:02:73
INDEX 01 15:04:73
TRACK 05 AUDIO
TITLE "Mirror Man"
PERFORMER "Philadelphia"
INDEX 00 18:54:61
INDEX 01 18:56:61
TRACK 06 AUDIO
TITLE "Fastrack"
PERFORMER "Philadelphia"
INDEX 00 22:04:72
INDEX 01 22:06:72
TRACK 07 AUDIO
TITLE "Showdown"
PERFORMER "Philadelphia"
INDEX 00 26:37:25
INDEX 01 26:39:25
TRACK 08 AUDIO
TITLE "Decision Time"
PERFORMER "Philadelphia"
INDEX 00 31:05:12
INDEX 01 31:07:12
TRACK 09 AUDIO
TITLE "Please My Love (Bonus)"
PERFORMER "Philadelphia"
INDEX 00 37:02:43
INDEX 01 37:04:43
TRACK 10 AUDIO
TITLE "Kids In America (Bonus)"
PERFORMER "Philadelphia"
INDEX 00 42:24:20
INDEX 01 42:26:20
TRACK 11 AUDIO
TITLE "Warlord (Live) (Bonus)"
PERFORMER "Philadelphia"
INDEX 00 46:19:29
INDEX 01 46:21:29
TRACK 12 AUDIO
TITLE "Razor's Edge (Live) (Bonus)"
PERFORMER "Philadelphia"
INDEX 01 53:45:31
TRACK 13 AUDIO
TITLE "One Way Out (Live) (Bonus)"
PERFORMER "Philadelphia"
INDEX 01 59:40:74

Spectrum
Image


Narod.Ru

:true: :true: :true:

phpBB [youtube]

phpBB [youtube]

[youtube]ddlwe5Ll3W8&feature=related[/youtube]


Top
 Profile E-mail  
 
 
PostPosted: 08 Apr 2012 
Прокъмитолист
User avatar
Joined: 12 Aug 2007
Posts: 6776
Lоcаtion: Санктъ-Петербуркъ
Age: 53
Name: Олекъ
спасибо Димка! забираем :true:

_________________
прокъметол - это музыко, от которово есть прок (ы)


Top
 Profile  
 
 
PostPosted: 08 Apr 2012 
***


Last edited by Вася_металлист_2012 on 14 Dec 2012, edited 1 time in total.

Top
  
 
 
PostPosted: 09 Apr 2012 
А может смените мне статус?..
User avatar
Joined: 24 Dec 2008
Posts: 661
Age: 46
Name: Дмитрий
Похоже, это что-то интересное. Спасибо!


Top
 Profile  
 
 
PostPosted: 09 Apr 2012 
А может смените мне статус?..
Joined: 03 Jul 2009
Posts: 905
Lоcаtion: Serbia
Name: Laki
Awesome. I have been searching for this in lossless for some time. Thanks.


Top
 Profile E-mail  
 
 
PostPosted: 09 Apr 2012 
Хиппей (support team)
User avatar
Joined: 30 Jul 2007
Posts: 119447
Lоcаtion: Киев (Kyiv, UA)
Age: 47
Name: Andrey
:thanx:

mirror: Speedy l Narod

Судя по первым двум трэкам с Ютуба - моя тема :kz:

_________________


Top
 Profile E-mail  
 
 
PostPosted: 09 Apr 2012 
Я набрал 1000 сообщений!
Joined: 12 Dec 2008
Posts: 1085
Lоcаtion: BULGARIA
Age: 42
Name: DIMITЪR
Спасибочки, хорошенко :meloman: :meloman: :meloman:


Top
 Profile  
 
 
PostPosted: 10 Apr 2012 
Пионэръ
User avatar
Joined: 02 Jul 2010
Posts: 45
Lоcаtion: Сочи
Age: 48
Name: Борис
Спасибо !! :meloman:


Top
 Profile E-mail  
 
 
PostPosted: 11 Apr 2012 
Труъ
User avatar
Joined: 14 Jul 2009
Posts: 158
Lоcаtion: Hell Is Here
Age: 50
Name: Adriano
Thank you very much ! :thanx: :true:


Top
 Profile E-mail  
 
 
PostPosted: 14 Jul 2012 
Труъ
Joined: 01 Jan 2010
Posts: 118
Lоcаtion: MetaLWarrioR
Name: Сергей
Спасибо большое!


Top
 Profile E-mail  
 
 
PostPosted: 23 Nov 2013 
Пионэръ
Joined: 29 Mar 2013
Posts: 16
Name: /
Scatterbrain I can't download this gem!Can you fix it?
404 Error ...
:cry:


Top
 Profile E-mail  
 
 
PostPosted: 23 Nov 2013 
Доктор энтомологии
User avatar
Joined: 22 Jan 2009
Posts: 10324
Lоcаtion: Даугавпилс
Age: 45
Name: Алексей
Prince Hector link to Narod
http://narod.ru/disk/45625925001.a17610 ... 9.rar.html
is working


Top
 Profile  
 
 
PostPosted: 23 Nov 2013 
Пионэръ
Joined: 29 Mar 2013
Posts: 16
Name: /
Prince Hector link to Narod
http://narod.ru/disk/45625925001.a17610 ... 9.rar.html
is working



Яндекс 404 Нет такой страницы
Thanks Alexander, but it doesn't work as you can see, I don't know why!
:dash:


Top
 Profile E-mail  
 
 
PostPosted: 23 Nov 2013 
Хиппей (support team)
User avatar
Joined: 30 Jul 2007
Posts: 119447
Lоcаtion: Киев (Kyiv, UA)
Age: 47
Name: Andrey
Image :lloo:

_________________


Top
 Profile E-mail  
 
 
PostPosted: 23 Nov 2013 
Хиппей (support team)
User avatar
Joined: 30 Jul 2007
Posts: 119447
Lоcаtion: Киев (Kyiv, UA)
Age: 47
Name: Andrey
Хм, понял причину =)
После ввода цифр страничка перегружается и.... не выдаёт прямую ссылку на скачивание. Это временная проблема. Час назад пробовал - было всё нормально.
Если что, сейчас еще потыкаю и попробую перезалить файл на Yadi :dance:

зы. Как видно на скрине, файл 2 часа назад кто-то скачивал.

_________________


Top
 Profile E-mail  
 
 
PostPosted: 24 Nov 2013 
Хиппей (support team)
User avatar
Joined: 30 Jul 2007
Posts: 119447
Lоcаtion: Киев (Kyiv, UA)
Age: 47
Name: Andrey
Вот сейчас файл снова доступен и качается нормально :pardon:

Image

Завтра уже перезалью.

_________________


Top
 Profile E-mail  
 
 
PostPosted: 26 Nov 2013 
Хиппей (support team)
User avatar
Joined: 30 Jul 2007
Posts: 119447
Lоcаtion: Киев (Kyiv, UA)
Age: 47
Name: Andrey
mirror: Narod l M-Cloud

_________________


Top
 Profile E-mail  
 
 
PostPosted: 26 Nov 2013 
Я набрал 1000 сообщений!
Joined: 24 Oct 2009
Posts: 2409
Lоcаtion: РСФСР
Age: 57
Name: Юра
Спасибо! Полёт нормальный.

_________________
:dash: I am happy!


Top
 Profile E-mail  
 
Display posts from previous:  Sort by  
Post new topic Reply to topic  [ 18 posts ] 

All times are UTC + 3 hours


Who is online

Users browsing this forum: No registered users and 1 guest


You cannot post new topics in this forum
You cannot reply to topics in this forum
You cannot edit your posts in this forum
You cannot delete your posts in this forum
You cannot post attachments in this forum

Search for:
Яндекс.Метрика
Powered by phpBB © 2000, 2002, 2005, 2007 phpBB Group