\m/ 80's metal \m/

Информационно-аналитический форум "80 см пыли" (In Search We Trust) "У нас никто никуда не спешит"
Me For You - http://me-4u.com
It is currently 26 Oct 2020

All times are UTC + 3 hours

Spoiler
Chat - temporary registration for foreign users (please leave your application here)







Post new topic Reply to topic  [ 8 posts ] 
Author Message
 
PostPosted: 09 Mar 2012 
А может смените мне статус?..
User avatar
Joined: 22 Nov 2008
Posts: 975
Lоcаtion: Schelcovo,Russia
Age: 49
Name: Сергей
Image

Pretty Maids - Sin-Decade (1992)
Track Listing:
01. Running Out (4:00)
02. Who Said Money (3:43)
03. Nightmare In The Neighbourhood (4:58)
04. Sin - Decade (4:34)
05. Come On Tough, Come On Nasty (3:13)
06. Raise Your Flag (3:49)
07. Credit Card Lover (4:05)
08. Know It Ain't Easy (4:06)
09. Healing Touch (4:03)
10. In The Flesh (3:24)
11. Please Don't Leave Me (5:20)

Размер: 385 Mb
Narod
В сканах небольшой календарь за прошлый век,с кучей фоток.
phpBB [youtube]

phpBB [youtube]

[youtube]dD9jUBt2Hmw&feature=related[/youtube]

log
EAC extraction logfile from 8. March 2012, 18:48 for CD
Pretty Maids / Sin-Decade

Used drive : HL-DT-STDVDRAM GT32N Adapter: 0 ID: 1
Read mode : Secure with NO C2, accurate stream, disable cache
Read offset correction : 667
Overread into Lead-In and Lead-Out : No

Used output format : Internal WAV Routines
44.100 Hz; 16 Bit; Stereo

Other options :
Fill up missing offset samples with silence : Yes
Delete leading and trailing silent blocks : No
Installed external ASPI interface


Range status and errors
Selected range
Filename C:\Users\Сергей\Music\Моя музыка\Pretty Maids - Sin-Decade.wav

Peak level 100.0 %
Range quality 99.9 %
CRC 789B262E
Copy OK

No errors occured

End of status report

cue
REM GENRE "Hard Rock"
REM DATE 1992
REM DISCID 890A970B
REM COMMENT "ExactAudioCopy v0.95b4"
PERFORMER "Pretty Maids"
TITLE "Sin-Decade"
FILE "Pretty Maids - Sin-Decade.wav" WAVE
TRACK 01 AUDIO
TITLE "Running Out"
PERFORMER "Pretty Maids"
INDEX 01 00:00:00
TRACK 02 AUDIO
TITLE "Who Said Money"
PERFORMER "Pretty Maids"
INDEX 00 03:59:72
INDEX 01 04:00:45
TRACK 03 AUDIO
TITLE "Nightmare In The Neighbourhood"
PERFORMER "Pretty Maids"
INDEX 00 07:42:52
INDEX 01 07:43:72
TRACK 04 AUDIO
TITLE "Sin-Decade"
PERFORMER "Pretty Maids"
INDEX 00 12:41:00
INDEX 01 12:42:02
TRACK 05 AUDIO
TITLE "Come On Tough, Come On Nasty"
PERFORMER "Pretty Maids"
INDEX 00 17:14:57
INDEX 01 17:16:07
TRACK 06 AUDIO
TITLE "Raise Your Flag"
PERFORMER "Pretty Maids"
INDEX 00 20:27:65
INDEX 01 20:29:02
TRACK 07 AUDIO
TITLE "Credit Card Lover"
PERFORMER "Pretty Maids"
INDEX 00 24:17:00
INDEX 01 24:18:35
TRACK 08 AUDIO
TITLE "Know It Ain't Easy"
PERFORMER "Pretty Maids"
INDEX 00 28:22:35
INDEX 01 28:23:50
TRACK 09 AUDIO
TITLE "Healing Touch"
PERFORMER "Pretty Maids"
INDEX 00 32:28:00
INDEX 01 32:28:67
TRACK 10 AUDIO
TITLE "In The Flesh"
PERFORMER "Pretty Maids"
INDEX 00 36:30:45
INDEX 01 36:31:42
TRACK 11 AUDIO
TITLE "Please Don't Leave Me"
PERFORMER "Pretty Maids"
INDEX 00 39:54:67
INDEX 01 39:56:15

spectrum
Image


Top
 Profile  
 
 
PostPosted: 09 Mar 2012 
Хиппей (support team)
User avatar
Joined: 30 Jul 2007
Posts: 119421
Lоcаtion: Киев (Kyiv, UA)
Age: 47
Name: Andrey
:thanx:

mirror: Speedy l Narod

_________________


Top
 Profile E-mail  
 
 
PostPosted: 15 Apr 2012 
Работнечег
User avatar
Joined: 28 Aug 2007
Posts: 6363
Lоcаtion: г. Москва
Age: 31
Name: Дима
Спасибо, Сергей! Обожаю эту группу, тоже потихонечку собираю на дисках)


Top
 Profile E-mail  
 
 
PostPosted: 15 Apr 2012 
А может смените мне статус?..
User avatar
Joined: 22 Nov 2008
Posts: 975
Lоcаtion: Schelcovo,Russia
Age: 49
Name: Сергей
Концерт их на двд просто потряс!!! :true:


Top
 Profile  
 
 
PostPosted: 19 Sep 2016 
Partisanen - nicht kapitulieren!!
User avatar
Joined: 25 Dec 2011
Posts: 7537
Lоcаtion: партизанские леса
Age: 48
Name: Владимир
отдельной темы по Pretty Maids у нас нет?
тогда пусть пока тут побудет...
Quote:
PRETTY MAIDS выпустят новую работу, получившую название "Kingmaker", четвертого ноября на Frontiers Music Srl:




_________________
One more beer and Heavy Metal and I'm just fine!
старовер, куле... слово "блин" - до сих пор через Ъ говорю


Top
 Profile E-mail  
 
 
PostPosted: 20 Sep 2016 
Хиппей (support team)
User avatar
Joined: 30 Jul 2007
Posts: 119421
Lоcаtion: Киев (Kyiv, UA)
Age: 47
Name: Andrey
Норм. Почти как Николай Носков поёт :meloman:

_________________


Top
 Profile E-mail  
 
 
PostPosted: 20 Sep 2016 
Power Metal Maniac
User avatar
Joined: 09 Aug 2008
Posts: 7238
Lоcаtion: Москва
Age: 42
Name: Егор
а быстрее бл :zenz: играть можно??? :(

_________________
Long Live Metal!


Top
 Profile  
 
 
PostPosted: 20 Sep 2016 
Рарник и трушник
User avatar
Joined: 25 Dec 2009
Posts: 9215
Lоcаtion: Москва
Age: 55
Name: Виталий
Не, получше. :pardon: Я Носкова тоже люблю, но Ронни круче. :vic:


Top
 Profile  
 
Display posts from previous:  Sort by  
Post new topic Reply to topic  [ 8 posts ] 

All times are UTC + 3 hours


Who is online

Users browsing this forum: No registered users and 3 guests


You cannot post new topics in this forum
You cannot reply to topics in this forum
You cannot edit your posts in this forum
You cannot delete your posts in this forum
You cannot post attachments in this forum

Search for:
Яндекс.Метрика
Powered by phpBB © 2000, 2002, 2005, 2007 phpBB Group