\m/ 80's metal \m/

Информационно-аналитический форум "80 см пыли" (In Search We Trust) "У нас никто никуда не спешит"
Me For You - http://me-4u.com
It is currently 18 Sep 2019

All times are UTC + 3 hours

Spoiler
Chat - temporary registration for foreign users (please leave your application here)







Post new topic Reply to topic  [ 17 posts ] 
Author Message
 
PostPosted: 29 Feb 2012 
Я набрал 1000 сообщений!
Joined: 12 Dec 2008
Posts: 1066
Lоcаtion: BULGARIA
Age: 41
Name: DIMITЪR
Pain - 1986 - Insanity [flac]

Image

Year: 1986
Genre:Traditional heavy metal
Country: Germany
Quality: flac + cue + log
Size: 282 mb
Download : bitshare

1.On My Knees 03:08
2.I'm Gonna Love 03:39
3.Spending the Night Alone 04:18
4.Call of the Wild 03:44
5.(Intro) The Groove of Love 04:27
6.Out For Tonight 04:16
7.It's Raining Blood 03:50
8.Insanity 07:40
9.Heavy Metal Warrior 03:26


log
Exact Audio Copy V1.0 beta 1 from 15. November 2010

Отчет на EAC за извличане, извършено на 29. февруари 2012, 16:44

Pain / Insanity

Използвано устройство : HL-DT-STDVDRAM GH22NS70 Adapter: 2 ID: 0

Режим на четене : Burst

Офсет корекция при четене : 0
Препрочитане на секторите Lead-In и Lead-Out : Не
Запълване на липсващи офсет семпли с тишина : Да
Изтриване на блокове тишина в началото и края : Не
Използване на нулеви семпли при CRC изчисления : Не
Използван интерфейс : Вграден Win32 интерфейс за Win NT & 2000

Използван изходен формат : Енкодер Дефиниран от Потребителя
Избран битрейт : 896 kBit/s
Качество : Високо
Добави ID3 таг : Не
Конзолен компресор : D:\EAC 2\EAC_1.0_beta_1_Portable_Multilingual\App\EAC\FLAC\flac.exe
Допълнителни конзолни опции : -6 -V -T "ARTIST=%a" -T "TITLE=%t" -T "ALBUM=%g" -T "DATE=%y" -T "TRACKNUMBER=%n" -T "GENRE=%m" -T "COMMENT=%e" %j--picture="%i"%j %s -o %d


TOC на извлечения CD

Трак | Начало | Дължина | Начален сектор | Краен сектор
------------------------------------------------------------
1 | 0:00.00 | 3:06.72 | 0 | 14021
2 | 3:06.72 | 3:41.27 | 14022 | 30623
3 | 6:48.24 | 4:18.51 | 30624 | 50024
4 | 11:07.00 | 3:43.63 | 50025 | 66812
5 | 14:50.63 | 4:24.58 | 66813 | 86670
6 | 19:15.46 | 4:15.33 | 86671 | 105828
7 | 23:31.04 | 3:49.55 | 105829 | 123058
8 | 27:20.59 | 7:37.52 | 123059 | 157385
9 | 34:58.36 | 3:24.49 | 157386 | 172734


Състояние и грешки на диапазон

Избран диапазон

Име на файл D:\MUSIC Torrent from Download\Pain - Insanity.wav

Пиково ниво 100.0 %
Скорост на извличане 2.1 X
Тестван CRC 9510BC79
Копиран CRC 9510BC79
Копиране OK

Няма грешки

Край на отчета


cue
REM GENRE "Heavy Metal"
REM DATE 1986
REM DISCID 6708FF09
REM COMMENT "ExactAudioCopy v1.0b1"
PERFORMER "Pain"
TITLE "Insanity"
FILE "Pain - Insanity.flac" WAVE
TRACK 01 AUDIO
TITLE "Pain / On My Knees"
PERFORMER "Pain"
FLAGS DCP
INDEX 01 00:00:00
TRACK 02 AUDIO
TITLE "Pain / I'm Gonna Love"
PERFORMER "Pain"
FLAGS DCP
INDEX 01 03:06:72
TRACK 03 AUDIO
TITLE "Pain / Spending The Night Alone"
PERFORMER "Pain"
FLAGS DCP
INDEX 01 06:48:24
TRACK 04 AUDIO
TITLE "Pain / Call Of The Wild"
PERFORMER "Pain"
FLAGS DCP
INDEX 01 11:07:00
TRACK 05 AUDIO
TITLE "Pain / (Into) The Groove Of Love"
PERFORMER "Pain"
FLAGS DCP
INDEX 01 14:50:63
TRACK 06 AUDIO
TITLE "Pain / Out For Tonight"
PERFORMER "Pain"
FLAGS DCP
INDEX 01 19:15:46
TRACK 07 AUDIO
TITLE "Pain / It's Raining Blood"
PERFORMER "Pain"
FLAGS DCP
INDEX 01 23:31:04
TRACK 08 AUDIO
TITLE "Pain / Insanity"
PERFORMER "Pain"
FLAGS DCP
INDEX 01 27:20:59
TRACK 09 AUDIO
TITLE "Pain / Heavy Metal Warrior"
PERFORMER "Pain"
FLAGS DCP
INDEX 01 34:58:36


spectrum
Image


Last edited by cryptors on 29 Feb 2012, edited 1 time in total.

Top
 Profile  
 
 
PostPosted: 29 Feb 2012 
спирт 100%
User avatar
Joined: 22 Sep 2008
Posts: 4468
Age: 48
Name: Саня
Спасибо! :true:

>>> Download File <<<
Проблема при загрузки :fingal: заебала уже


Top
 Profile  
 
 
PostPosted: 29 Feb 2012 
Хиппей (support team)
User avatar
Joined: 30 Jul 2007
Posts: 114377
Lоcаtion: Киев (Kyiv, UA)
Age: 46
Name: Andrey
:thanx:

_________________


Top
 Profile E-mail  
 
 
PostPosted: 29 Feb 2012 
Хиппей (support team)
User avatar
Joined: 30 Jul 2007
Posts: 114377
Lоcаtion: Киев (Kyiv, UA)
Age: 46
Name: Andrey
spryt777 wrote:
зае

Сань, тяни ДаунлодМастером :pardon:
А я утром перезалью. Щас уже спать...

_________________


Top
 Profile E-mail  
 
 
PostPosted: 29 Feb 2012 
Хиппей (support team)
User avatar
Joined: 30 Jul 2007
Posts: 114377
Lоcаtion: Киев (Kyiv, UA)
Age: 46
Name: Andrey
Мдя... я так и не докачал :crazy:
А вообще, охренезный обменник :true:

Quote:


Димитар, спасибо за возможность протестировать еще один уникальный сервис по обмену файлов :thanx: :esel: :esel: :esel:

_________________


Top
 Profile E-mail  
 
 
PostPosted: 29 Feb 2012 
Хиппей (support team)
User avatar
Joined: 30 Jul 2007
Posts: 114377
Lоcаtion: Киев (Kyiv, UA)
Age: 46
Name: Andrey
cryptors wrote:
Последний раз редактировалось cryptors 29 фев 2012, 20:09, всего редактировалось 1 раз.

cryptors wrote:
Download : bitshare

:thanx: =)

mirror: Speedy l Narod

_________________


Top
 Profile E-mail  
 
 
PostPosted: 29 Feb 2012 
спирт 100%
User avatar
Joined: 22 Sep 2008
Posts: 4468
Age: 48
Name: Саня
:thanx:


Top
 Profile  
 
 
PostPosted: 29 Feb 2012 
Труъ
User avatar
Joined: 14 Jul 2009
Posts: 158
Lоcаtion: Hell Is Here
Age: 49
Name: Adriano
Many Thanx ! :thanx:


Top
 Profile E-mail  
 
 
PostPosted: 04 Mar 2012 
Анатолий
User avatar
Joined: 18 Oct 2008
Posts: 3531
Lоcаtion: Армавир
Age: 42
Name: Анатолий
Винил?


Top
 Profile E-mail  
 
 
PostPosted: 04 Mar 2012 
Хиппей (support team)
User avatar
Joined: 30 Jul 2007
Posts: 114377
Lоcаtion: Киев (Kyiv, UA)
Age: 46
Name: Andrey
Privateer wrote:
Винил?

Угу. Только уже изданный на CD.
Если верить Димитару, то ему качество понравилось.
Я еще не слушал. Но мне явно понравится еще больше =)

_________________


Top
 Profile E-mail  
 
 
PostPosted: 05 Mar 2012 
Зарегился вот...
Joined: 23 Sep 2011
Posts: 8
Lоcаtion: The Netherlands
Name: Ron
Looks like someone made a different rip from my original MMT release... :nunu:

Vinyl rip here: http://speedy.sh/tusAn/PAIN-1986-LP-Ins ... S.TeaM.rar


Top
 Profile E-mail  
 
 
PostPosted: 05 Mar 2012 
Хиппей (support team)
User avatar
Joined: 30 Jul 2007
Posts: 114377
Lоcаtion: Киев (Kyiv, UA)
Age: 46
Name: Andrey
speedica wrote:
Looks like someone made a different rip from my original MMT release... :nunu:

Probably Dimitar =) But, now it will be difficult to determine :crazy:

Thanks for the vinyl rip, Ron! :true:

mirror: Narod

_________________


Top
 Profile E-mail  
 
 
PostPosted: 05 Mar 2012 
Хиппей (support team)
User avatar
Joined: 30 Jul 2007
Posts: 114377
Lоcаtion: Киев (Kyiv, UA)
Age: 46
Name: Andrey
Quote:
speedyshare.com/file/tusAn

Ron, you have a premium account?
It makes possible to you to extend the files on this service? :umnik:

_________________


Top
 Profile E-mail  
 
 
PostPosted: 05 Mar 2012 
Хиппей (support team)
User avatar
Joined: 30 Jul 2007
Posts: 114377
Lоcаtion: Киев (Kyiv, UA)
Age: 46
Name: Andrey
Aah... Sorry, this is just a file id :pardon:

http://speedy.sh/tusAn

_________________


Top
 Profile E-mail  
 
 
PostPosted: 05 Mar 2012 
А может смените мне статус?..
User avatar
Joined: 24 Dec 2008
Posts: 647
Age: 45
Name: Дмитрий
Many thanks!


Top
 Profile  
 
 
PostPosted: 08 Mar 2012 
Почётный металлург
User avatar
Joined: 15 Sep 2007
Posts: 4358
Lоcаtion: Хабаровск
Age: 59
Name: чуть выше
:thanx: :thanx: :thanx:

_________________
Коль будешь людей ты ослами честить,
тебе человеком меж них не прослыть!
(Саади, персидский поэт, 13в.)


Top
 Profile  
 
 
PostPosted: 17 Mar 2012 
Трешер
User avatar
Joined: 25 Feb 2011
Posts: 1115
Lоcаtion: Харьков
Age: 43
Name: Aleksandr
Забираю :thanx:


Top
 Profile E-mail  
 
Display posts from previous:  Sort by  
Post new topic Reply to topic  [ 17 posts ] 

All times are UTC + 3 hours


Who is online

Users browsing this forum: No registered users and 1 guest


You cannot post new topics in this forum
You cannot reply to topics in this forum
You cannot edit your posts in this forum
You cannot delete your posts in this forum
You cannot post attachments in this forum

Search for:
Яндекс.Метрика
Powered by phpBB © 2000, 2002, 2005, 2007 phpBB Group