\m/ 80's metal \m/

Информационно-аналитический форум "80 см пыли" (In Search We Trust) "У нас никто никуда не спешит"
Me For You - http://me-4u.com
It is currently 26 Oct 2020

All times are UTC + 3 hours

Spoiler
Chat - temporary registration for foreign users (please leave your application here)







Post new topic Reply to topic  [ 5 posts ] 
Author Message
 
PostPosted: 14 Feb 2012 
Трешер
User avatar
Joined: 25 Feb 2011
Posts: 1271
Lоcаtion: Харьков
Age: 44
Name: Aleksandr
Помогите с паролем , стянул с осла этот образ а открыть не могу :dash: так и валяется на компе уже пол года :(
Paradox.[2009].Riot_Squad.(Japanese_MICP-10847).[EAC_Flac].byV.[MetalMass].rar


Top
 Profile E-mail  
 
 
PostPosted: 14 Feb 2012 
Хиппей (support team)
User avatar
Joined: 30 Jul 2007
Posts: 119421
Lоcаtion: Киев (Kyiv, UA)
Age: 47
Name: Andrey
Quote:
pass:segodnyazima09


Мише спасибо за рип :thanx:

http://igorloss.communityhost.ru/thread ... =692072355

_________________


Top
 Profile E-mail  
 
 
PostPosted: 14 Feb 2012 
Хиппей (support team)
User avatar
Joined: 30 Jul 2007
Posts: 119421
Lоcаtion: Киев (Kyiv, UA)
Age: 47
Name: Andrey
Собственно, mirror: Speedy l Narod

Paradox - 2009 - Riot Squad (Japanese MICP-10847) [flac]

Image

Genre: Power Metal/Thrash Metal
Location: Germany
Format: flac + cue + log + scans
Size: 522 Mb


Line-up:

Charly Steinhauer - guitars, vocals
Gus Drax - guitars
Olly Keller - bass
Roland Jahoda - drums

    1. Suburban Riot Squad - 05:07
    2. Hollow Peace - 05:33
    3. Riptide - 04:03
    4. Rise in Rank - 04:26
    5. Evolution Reset - 05:31
    6. Nothingness - 05:24
    7. No Place to Survive - 02:55
    8. Dream Hero - 05:08
    9. Planet Terror - 06:43
    10. Psychofficial - 03:37
    11. Timegrain (bonus)

log
EAC extraction logfile from 29. November 2009, 15:34 for CD
PARADOX / Riot Squad

Used drive : _NEC DVD_RW ND-3520A Adapter: 1 ID: 0
Read mode : Secure with NO C2, accurate stream, disable cache
Read offset correction : 48
Overread into Lead-In and Lead-Out : No

Used output format : Internal WAV Routines
44.100 Hz; 16 Bit; Stereo

Other options :
Fill up missing offset samples with silence : Yes
Delete leading and trailing silent blocks : No
Installed external ASPI interface


Range status and errors
Selected range
Filename F:\Paradox 2009 Japan\CDImage.wav

Peak level 98.9 %
Range quality 99.9 %
CRC 63D88FBA
Copy OK

No errors occured

End of status report


cue
PERFORMER "PARADOX"
TITLE "Riot Squad"
FILE "CDImage.wav" WAVE
TRACK 01 AUDIO
TITLE "Suburban Riot Squad"
PERFORMER "PARADOX"
ISRC DEU600902680
INDEX 01 00:00:00
TRACK 02 AUDIO
TITLE "Hollow Peace"
PERFORMER "PARADOX"
ISRC DEU600902681
INDEX 01 05:07:55
TRACK 03 AUDIO
TITLE "Riptide"
PERFORMER "PARADOX"
ISRC DEU600902682
INDEX 01 10:40:27
TRACK 04 AUDIO
TITLE "Rise In Rank"
PERFORMER "PARADOX"
ISRC DEU600902683
INDEX 01 14:43:61
TRACK 05 AUDIO
TITLE "Evolution Reset"
PERFORMER "PARADOX"
ISRC DEU600902684
INDEX 01 19:09:26
TRACK 06 AUDIO
TITLE "Nothingness"
PERFORMER "PARADOX"
ISRC DEU600902685
INDEX 01 24:40:50
TRACK 07 AUDIO
TITLE "No Place To Survive"
PERFORMER "PARADOX"
ISRC DEU600902686
INDEX 01 30:04:23
TRACK 08 AUDIO
TITLE "Dream Hero"
PERFORMER "PARADOX"
ISRC DEU600902687
INDEX 01 32:59:62
TRACK 09 AUDIO
TITLE "Planet Terror"
PERFORMER "PARADOX"
ISRC DEU600902688
INDEX 01 38:07:47
TRACK 10 AUDIO
TITLE "Psychofficial"
PERFORMER "PARADOX"
ISRC DEU600902689
INDEX 01 44:50:68
TRACK 11 AUDIO
TITLE "Timegrain"
PERFORMER "PARADOX"
ISRC DEU600902690
INDEX 01 48:27:65


spectrum
Image


Ну и тема переносится в Бухту.

_________________


Top
 Profile E-mail  
 
 
PostPosted: 15 Apr 2012 
Трешер
User avatar
Joined: 25 Feb 2011
Posts: 1271
Lоcаtion: Харьков
Age: 44
Name: Aleksandr
Хочу себе японца прикупить , пока без успешно. Нигде не попадается.


Top
 Profile E-mail  
 
 
PostPosted: 15 Apr 2012 
Прокъмитолист
User avatar
Joined: 12 Aug 2007
Posts: 6776
Lоcаtion: Санктъ-Петербуркъ
Age: 53
Name: Олекъ
glloomerxe wrote:
Нигде не попадается

здесь можно купить: http://www.cdjapan.co.jp/detailview.html?KEY=MICP-10847
цена кусается, конечно. я бы лучше ибэй мониторил периодически :umnik:

_________________
прокъметол - это музыко, от которово есть прок (ы)


Top
 Profile  
 
Display posts from previous:  Sort by  
Post new topic Reply to topic  [ 5 posts ] 

All times are UTC + 3 hours


Who is online

Users browsing this forum: No registered users and 3 guests


You cannot post new topics in this forum
You cannot reply to topics in this forum
You cannot edit your posts in this forum
You cannot delete your posts in this forum
You cannot post attachments in this forum

Search for:
Яндекс.Метрика
Powered by phpBB © 2000, 2002, 2005, 2007 phpBB Group