\m/ 80's metal \m/

Информационно-аналитический форум "80 см пыли" (In Search We Trust) "У нас никто никуда не спешит"
Me For You - http://me-4u.com
It is currently 25 Oct 2020

All times are UTC + 3 hours

Spoiler
Chat - temporary registration for foreign users (please leave your application here)







Post new topic Reply to topic  [ 8 posts ] 
Author Message
 
PostPosted: 08 Feb 2012 
Генеральный thrasher
User avatar
Joined: 03 Oct 2008
Posts: 3751
Lоcаtion: Ханты-Мансийский АО
Age: 45
Name: Сергей
Image

Year:2007
Style:Thrash Metal
Country:Finland
Audio:Flac+Cue+Log+Scans
Size:451Mb+313Mb
Label:Poko Records

Line-Up:
Aku Kytola - bass, vocals
Tero Karppinen - drums
Ari Karppinen - guitars
Jan "Orkki" Yrlund - guitars

Image

DISC 1 :
1. Force of my hate 3.15
2. Angels cry 3.48
3. It’s over 4.52
4. Dead by Drugs 5.00
5. This World 5.01
6. Bed Time Story 3.22
7. Species to Pieces 2.56
8. Miserable Life 3.09
9. Sexual Education 3.17
10. Maggots 3.34
11. Crack Children 3.46
12. Offender 2.47
13. Will this ever end? 1.47
14. Lack of Sanity 4.04
15. From the Cradle to the Grave 2.48
16. Too Greedy 4.39

Image

DISC 2 :
1. Priest 3.42
2. Selling The Salvation 3.46
3. Wake Up 2.32
4. Naughty Granny 2.37
5. Rotten Angel 1.13
6. Rabb-it 0.09
7. I don’t Wanna Play With Teddy 0.56
8. Hop 2,3,4 0.44
9. I Ain’t The One 1.26
10. Veijo 1.22
11. I Need Food 0.46
12. Radiated 0.17
13. Jani 2.03
14. Ei Ihraa mun lautaselle 0.57
15. Rakkauslaulu 0.666
16. Gods 3.16
17. Force Of My Hate 3.29
18. Brain Outburst 4.05
19. Punishment 3.49
20. Angels Cry 3.45

Cue 1
REM GENRE "Thrash Metal"
REM DATE 2007
REM DISCID BA0D9A10
REM COMMENT "ExactAudioCopy v0.99pb5"
PERFORMER "Prestige"
TITLE "Decades of Decay (cd1)"
FILE "Prestige - Decades of Decay (cd1).flac" WAVE
TRACK 01 AUDIO
TITLE "Force of My Hate"
PERFORMER "Prestige"
INDEX 01 00:00:00
TRACK 02 AUDIO
TITLE "Angels Cry"
PERFORMER "Prestige"
INDEX 01 03:18:43
TRACK 03 AUDIO
TITLE "It?s Over"
PERFORMER "Prestige"
INDEX 01 07:04:05
TRACK 04 AUDIO
TITLE "Dead by Drugs"
PERFORMER "Prestige"
INDEX 01 11:50:15
TRACK 05 AUDIO
TITLE "This World"
PERFORMER "Prestige"
INDEX 01 16:47:61
TRACK 06 AUDIO
TITLE "Bed Time Story"
PERFORMER "Prestige"
INDEX 01 21:45:48
TRACK 07 AUDIO
TITLE "Species to Pieces"
PERFORMER "Prestige"
INDEX 01 25:08:00
TRACK 08 AUDIO
TITLE "Miserable Life"
PERFORMER "Prestige"
INDEX 01 28:19:03
TRACK 09 AUDIO
TITLE "Sexual Education"
PERFORMER "Prestige"
INDEX 01 31:28:54
TRACK 10 AUDIO
TITLE "Maggots"
PERFORMER "Prestige"
INDEX 01 34:46:32
TRACK 11 AUDIO
TITLE "Crack Children"
PERFORMER "Prestige"
INDEX 01 38:20:25
TRACK 12 AUDIO
TITLE "Offender"
PERFORMER "Prestige"
INDEX 01 42:04:71
TRACK 13 AUDIO
TITLE "Will This Ever End?"
PERFORMER "Prestige"
INDEX 01 44:51:02
TRACK 14 AUDIO
TITLE "Lack of Sanity"
PERFORMER "Prestige"
INDEX 01 46:36:55
TRACK 15 AUDIO
TITLE "From the Cradle to the Grave"
PERFORMER "Prestige"
INDEX 01 50:38:44
TRACK 16 AUDIO
TITLE "Too Greedy"
PERFORMER "Prestige"
INDEX 01 53:25:23


Cue 2
REM GENRE Metal
REM DATE 2007
REM DISCID 0D098314
REM COMMENT "ExactAudioCopy v0.99pb5"
PERFORMER "Prestige"
TITLE "Decades of Decay (cd2)"
FILE "Prestige - Decades of Decay (cd2).flac" WAVE
TRACK 01 AUDIO
TITLE "Priest"
PERFORMER "Prestige"
INDEX 01 00:00:00
TRACK 02 AUDIO
TITLE "Selling the Salvation"
PERFORMER "Prestige"
INDEX 01 03:42:02
TRACK 03 AUDIO
TITLE "Wake Up"
PERFORMER "Prestige"
INDEX 01 07:23:41
TRACK 04 AUDIO
TITLE "Naughty Granny"
PERFORMER "Prestige"
INDEX 01 09:56:09
TRACK 05 AUDIO
TITLE "Rotten Angel"
PERFORMER "Prestige"
INDEX 01 12:31:41
TRACK 06 AUDIO
TITLE "Rabb?it"
PERFORMER "Prestige"
INDEX 01 13:36:10
TRACK 07 AUDIO
TITLE "I Don?t Wanna Play With Teddy"
PERFORMER "Prestige"
INDEX 01 13:41:13
TRACK 08 AUDIO
TITLE "Hop"
PERFORMER "Prestige"
INDEX 01 14:37:16
TRACK 09 AUDIO
TITLE "I Ain?t the One"
PERFORMER "Prestige"
INDEX 01 15:20:14
TRACK 10 AUDIO
TITLE "Veijo"
PERFORMER "Prestige"
INDEX 01 16:45:24
TRACK 11 AUDIO
TITLE "I Need Food"
PERFORMER "Prestige"
INDEX 01 18:05:58
TRACK 12 AUDIO
TITLE "Radiated"
PERFORMER "Prestige"
INDEX 01 18:50:60
TRACK 13 AUDIO
TITLE "Jani"
PERFORMER "Prestige"
INDEX 01 19:06:41
TRACK 14 AUDIO
TITLE "Ei Ihraa Mun Lautaselle"
PERFORMER "Prestige"
INDEX 01 21:08:11
TRACK 15 AUDIO
TITLE "Rakkauslaulu"
PERFORMER "Prestige"
INDEX 01 22:03:60
TRACK 16 AUDIO
TITLE "Gods"
PERFORMER "Prestige"
INDEX 01 22:10:74
TRACK 17 AUDIO
TITLE "Force of My Hate"
PERFORMER "Prestige"
INDEX 01 25:27:22
TRACK 18 AUDIO
TITLE "Brain Outburst"
PERFORMER "Prestige"
INDEX 01 28:54:71
TRACK 19 AUDIO
TITLE "Punishment"
PERFORMER "Prestige"
INDEX 01 32:59:31
TRACK 20 AUDIO
TITLE "Angels Cry"
PERFORMER "Prestige"
INDEX 01 36:47:32


Log 1
Exact Audio Copy V0.99 prebeta 5 from 4. May 2009

Отчёт EAC об извлечении, выполненном 30. августа 2011, 12:21

Prestige / Decades of Decay (cd1)

Дисковод: TSSTcorpCDDVDW SH-S202N Adapter: 0 ID: 1

Режим чтения : Достоверность
Использование точного потока : Да
Отключение кэша аудио : Да
Использование указателей C2 : Нет

Коррекция смещения при чтении : 6
Способность читать области Lead-in и Lead-out : Нет
Заполнение пропущенных сэмплов тишиной : Да
Удаление блоков с тишиной в начале и конце : Нет
При вычислениях CRC использовались нулевые сэмплы : Да
Интерфейс : Встроенный Win32-интерфейс для Win NT/2000

Выходной формат : Пользовательский кодировщик
Выбранный битрейт : 768 kBit/s
Качество : Высокий
Добавление ID3-тэга : Нет
Утилита сжатия : C:\Program Files\Exact Audio Copy\FLAC\FLAC.EXE
Дополнительные параметры : -6 -V -T "ARTIST=%a" -T "TITLE=%t" -T "ALBUM=%g" -T "DATE=%y" -T "TRACKNUMBER=%n" -T "GENRE=%m" -T "COMMENT=%e" %s -o %d


TOC извлечённого CD

Трек | Старт | Длительность | Начальный сектор | Конечный сектор
---------------------------------------------------------------------
1 | 0:00.00 | 3:18.43 | 0 | 14892
2 | 3:18.43 | 3:45.37 | 14893 | 31804
3 | 7:04.05 | 4:46.10 | 31805 | 53264
4 | 11:50.15 | 4:57.46 | 53265 | 75585
5 | 16:47.61 | 4:57.62 | 75586 | 97922
6 | 21:45.48 | 3:22.27 | 97923 | 113099
7 | 25:08.00 | 3:11.03 | 113100 | 127427
8 | 28:19.03 | 3:09.51 | 127428 | 141653
9 | 31:28.54 | 3:17.53 | 141654 | 156481
10 | 34:46.32 | 3:33.68 | 156482 | 172524
11 | 38:20.25 | 3:44.46 | 172525 | 189370
12 | 42:04.71 | 2:46.06 | 189371 | 201826
13 | 44:51.02 | 1:45.53 | 201827 | 209754
14 | 46:36.55 | 4:01.64 | 209755 | 227893
15 | 50:38.44 | 2:46.54 | 227894 | 240397
16 | 53:25.23 | 4:37.03 | 240398 | 261175


Характеристики диапазона извлечения и сообщения об ошибках

Выбранный диапазон

Имя файла D:\Lossless Music\Prestige - Decades of Decay (cd1).wav

Пиковый уровень 97.7 %
Качество диапазона 99.9 %
CRC копии 868C04A8
Копирование... OK

Ошибок не произошло


AccurateRip: сводка

Трек 1 точное извлечение (доверие 1) [E6BD0818]
Трек 2 точное извлечение (доверие 1) [990767CA]
Трек 3 точное извлечение (доверие 1) [4B25ED97]
Трек 4 точное извлечение (доверие 1) [D0F73205]
Трек 5 точное извлечение (доверие 1) [AE69831E]
Трек 6 точное извлечение (доверие 1) [F5A4BE68]
Трек 7 точное извлечение (доверие 1) [B7819AEC]
Трек 8 точное извлечение (доверие 1) [0DA949FE]
Трек 9 точное извлечение (доверие 1) [AE39C8F1]
Трек 10 точное извлечение (доверие 1) [FF894DB0]
Трек 11 точное извлечение (доверие 1) [AD4B7B34]
Трек 12 точное извлечение (доверие 1) [6E3ABF04]
Трек 13 точное извлечение (доверие 1) [5E2A4C71]
Трек 14 точное извлечение (доверие 1) [36A14FF3]
Трек 15 точное извлечение (доверие 1) [F6B3BB0D]
Трек 16 точное извлечение (доверие 1) [69757FAD]

Все треки извлечены точно

Конец отчёта


Log 2
Exact Audio Copy V0.99 prebeta 5 from 4. May 2009

Отчёт EAC об извлечении, выполненном 30. августа 2011, 12:30

Prestige / Decades of Decay (cd2)

Дисковод: TSSTcorpCDDVDW SH-S202N Adapter: 0 ID: 1

Режим чтения : Достоверность
Использование точного потока : Да
Отключение кэша аудио : Да
Использование указателей C2 : Нет

Коррекция смещения при чтении : 6
Способность читать области Lead-in и Lead-out : Нет
Заполнение пропущенных сэмплов тишиной : Да
Удаление блоков с тишиной в начале и конце : Нет
При вычислениях CRC использовались нулевые сэмплы : Да
Интерфейс : Встроенный Win32-интерфейс для Win NT/2000

Выходной формат : Пользовательский кодировщик
Выбранный битрейт : 768 kBit/s
Качество : Высокий
Добавление ID3-тэга : Нет
Утилита сжатия : C:\Program Files\Exact Audio Copy\FLAC\FLAC.EXE
Дополнительные параметры : -6 -V -T "ARTIST=%a" -T "TITLE=%t" -T "ALBUM=%g" -T "DATE=%y" -T "TRACKNUMBER=%n" -T "GENRE=%m" -T "COMMENT=%e" %s -o %d


TOC извлечённого CD

Трек | Старт | Длительность | Начальный сектор | Конечный сектор
---------------------------------------------------------------------
1 | 0:00.00 | 3:42.02 | 0 | 16651
2 | 3:42.02 | 3:41.39 | 16652 | 33265
3 | 7:23.41 | 2:32.43 | 33266 | 44708
4 | 9:56.09 | 2:35.32 | 44709 | 56365
5 | 12:31.41 | 1:04.44 | 56366 | 61209
6 | 13:36.10 | 0:05.03 | 61210 | 61587
7 | 13:41.13 | 0:56.03 | 61588 | 65790
8 | 14:37.16 | 0:42.73 | 65791 | 69013
9 | 15:20.14 | 1:25.10 | 69014 | 75398
10 | 16:45.24 | 1:20.34 | 75399 | 81432
11 | 18:05.58 | 0:45.02 | 81433 | 84809
12 | 18:50.60 | 0:15.56 | 84810 | 85990
13 | 19:06.41 | 2:01.45 | 85991 | 95110
14 | 21:08.11 | 0:55.49 | 95111 | 99284
15 | 22:03.60 | 0:07.14 | 99285 | 99823
16 | 22:10.74 | 3:16.23 | 99824 | 114546
17 | 25:27.22 | 3:27.49 | 114547 | 130120
18 | 28:54.71 | 4:04.35 | 130121 | 148455
19 | 32:59.31 | 3:48.01 | 148456 | 165556
20 | 36:47.32 | 3:48.10 | 165557 | 182666


Характеристики диапазона извлечения и сообщения об ошибках

Выбранный диапазон

Имя файла D:\Lossless Music\Prestige - Decades of Decay (cd2).wav

Пиковый уровень 97.7 %
Качество диапазона 100.0 %
CRC копии A244D375
Копирование... OK

Ошибок не произошло


AccurateRip: сводка

Трек 1 точное извлечение (доверие 1) [C326F165]
Трек 2 точное извлечение (доверие 1) [040E2EFF]
Трек 3 точное извлечение (доверие 1) [4E5AC208]
Трек 4 точное извлечение (доверие 1) [283DE96C]
Трек 5 точное извлечение (доверие 1) [4A796AFF]
Трек 6 нет в базе данных
Трек 7 точное извлечение (доверие 1) [D6DC27A4]
Трек 8 точное извлечение (доверие 1) [B2E856CC]
Трек 9 точное извлечение (доверие 1) [8BFD7B36]
Трек 10 точное извлечение (доверие 1) [471DAAD9]
Трек 11 точное извлечение (доверие 1) [4140A272]
Трек 12 точное извлечение (доверие 1) [DBE0490C]
Трек 13 точное извлечение (доверие 1) [D37D8167]
Трек 14 точное извлечение (доверие 1) [DB43A477]
Трек 15 точное извлечение (доверие 1) [DB3AE23C]
Трек 16 точное извлечение (доверие 1) [A1705A2B]
Трек 17 точное извлечение (доверие 1) [F806E272]
Трек 18 точное извлечение (доверие 1) [F2E5105C]
Трек 19 точное извлечение (доверие 1) [CBBE8FC5]
Трек 20 точное извлечение (доверие 1) [4AA05DB3]

19 трек(и) скопированы точно
1 трек(и) не содержатся в базе AccurateRip

Некоторые треки не прошли проверку на точность

Конец отчёта


Spectrum
Image


Image

Decades Of Decay CD1
Decades Of Decay CD2


Top
 Profile  
 
 
PostPosted: 12 Feb 2012 
Работнечег
User avatar
Joined: 28 Aug 2007
Posts: 6363
Lоcаtion: г. Москва
Age: 31
Name: Дима
Спасибо Серег, хорошая группка!


Top
 Profile E-mail  
 
 
PostPosted: 12 Feb 2012 
Генеральный thrasher
User avatar
Joined: 03 Oct 2008
Posts: 3751
Lоcаtion: Ханты-Мансийский АО
Age: 45
Name: Сергей
church wrote:
Спасибо Серег, хорошая группка!


Димка,с возвращением!!! :true: Давно тебя не было видно!


Top
 Profile  
 
 
PostPosted: 13 Feb 2012 
Анатолий
User avatar
Joined: 18 Oct 2008
Posts: 3923
Lоcаtion: Армавир
Age: 43
Name: Анатолий
Спасибо за лося! Да, группа весьма!


Top
 Profile E-mail  
 
 
PostPosted: 13 Feb 2012 
Хиппей (support team)
User avatar
Joined: 30 Jul 2007
Posts: 119421
Lоcаtion: Киев (Kyiv, UA)
Age: 47
Name: Andrey
Серёг, спасибо :thanx:

mirror:

CD 1 Speedy l Narod
CD 2 Speedy l Narod

_________________


Top
 Profile E-mail  
 
 
PostPosted: 25 Nov 2014 
Трешер
User avatar
Joined: 25 Feb 2011
Posts: 1271
Lоcаtion: Харьков
Age: 44
Name: Aleksandr
Спасибо Сергей ! :thanx:


Top
 Profile E-mail  
 
 
PostPosted: 23 Jul 2015 
Персональный статус
User avatar
Joined: 04 Mar 2012
Posts: 239
Lоcаtion: Саратов
Name: Василий
:thanx:


Top
 Profile E-mail  
 
 
PostPosted: 24 Jul 2015 
ТрэшЭрос
User avatar
Joined: 18 Jul 2011
Posts: 2307
Lоcаtion: Гулькевичи
Age: 45
Name: Александр
:thanx:

_________________
Thrash no trash!!!


Top
 Profile E-mail  
 
Display posts from previous:  Sort by  
Post new topic Reply to topic  [ 8 posts ] 

All times are UTC + 3 hours


Who is online

Users browsing this forum: No registered users and 2 guests


You cannot post new topics in this forum
You cannot reply to topics in this forum
You cannot edit your posts in this forum
You cannot delete your posts in this forum
You cannot post attachments in this forum

Search for:
Яндекс.Метрика
Powered by phpBB © 2000, 2002, 2005, 2007 phpBB Group