\m/ 80's metal \m/

Информационно-аналитический форум "80 см пыли" (In Search We Trust) "У нас никто никуда не спешит"
Me For You - http://me-4u.com
It is currently 25 Oct 2020

All times are UTC + 3 hours

Spoiler
Chat - temporary registration for foreign users (please leave your application here)







Post new topic Reply to topic  [ 1 post ] 
Author Message
 
PostPosted: 09 Dec 2011 
Хиппей (support team)
User avatar
Joined: 30 Jul 2007
Posts: 119421
Lоcаtion: Киев (Kyiv, UA)
Age: 47
Name: Andrey
Paralysis - 1996 - Wonderland (EP) [flac]

Attachment:
front.jpg
front.jpg [ 1.67 MiB | Viewed 189 times ]


Genre: Technical Melodic Thrash
Location: Holland
Format: flac+cue+log+scans
Size: 203 Mb


Line-up:

Nick Davies - Vocals, Acoustic Guitars
Eric Bos - Guitars
Jean-Paul van Haestregt - Guitars
Roger de Rijke - Bass
Stephen van Haestregt - Drums

    1. Wonderland - 05:55
    2. In Memoriam (1995 remix) - 05:21
    3. My Room - 06:08
    4. Escape from Yesterday (1995 remix) - 04:42
    5. Inhumane (1995 edit) - 05:27

    TPT: 27:33

MultiUp l Narod

Thanx to spiralarch from MMT :thanx:

log
Exact Audio Copy V1.0 beta 1 from 15. November 2010

EAC extraction logfile from 3. November 2011, 17:35

Paralysis / Wonderland

Used drive : Optiarc DVD RW AD-7240S Adapter: 2 ID: 0

Read mode : Secure
Utilize accurate stream : Yes
Defeat audio cache : Yes
Make use of C2 pointers : No

Read offset correction : 48
Overread into Lead-In and Lead-Out : No
Fill up missing offset samples with silence : Yes
Delete leading and trailing silent blocks : No
Null samples used in CRC calculations : Yes
Used interface : Native Win32 interface for Win NT & 2000

Used output format : Internal WAV Routines
Sample format : 44.100 Hz; 16 Bit; Stereo


TOC of the extracted CD

Track | Start | Length | Start sector | End sector
---------------------------------------------------------
1 | 0:00.00 | 5:55.67 | 0 | 26691
2 | 5:55.67 | 5:21.18 | 26692 | 50784
3 | 11:17.10 | 6:08.30 | 50785 | 78414
4 | 17:25.40 | 4:42.50 | 78415 | 99614
5 | 22:08.15 | 5:27.27 | 99615 | 124166


Range status and errors

Selected range

Filename D:\spiralarch\Paralysis - Wonderland.wav

Peak level 95.5 %
Extraction speed 0.6 X
Range quality 100.0 %
Copy CRC A5CB505F
Copy OK

No errors occurred


AccurateRip summary

Track 1 not present in database
Track 2 not present in database
Track 3 not present in database
Track 4 not present in database
Track 5 not present in database

None of the tracks are present in the AccurateRip database

End of status report

==== Log checksum 35BC358598FC0E59618FDD9B38C72EF4556C94D1F034321D95D81A47419ED196 ====


cue
REM GENRE "Progressive Thrash Metal"
REM DATE 1996
REM DISCID 3A067705
REM COMMENT "ExactAudioCopy v1.0b1"
PERFORMER "Paralysis"
TITLE "Wonderland"
FILE "Paralysis - Wonderland.wav" WAVE
TRACK 01 AUDIO
TITLE "Wonderland"
PERFORMER "Paralysis"
INDEX 01 00:00:00
TRACK 02 AUDIO
TITLE "In Memoriam (remix)"
PERFORMER "Paralysis"
INDEX 01 05:55:67
TRACK 03 AUDIO
TITLE "My Room"
PERFORMER "Paralysis"
INDEX 01 11:17:10
TRACK 04 AUDIO
TITLE "Escape From Yesterday (remix)"
PERFORMER "Paralysis"
INDEX 00 17:24:02
INDEX 01 17:25:40
TRACK 05 AUDIO
TITLE "Inhumane (1995)"
PERFORMER "Paralysis"
INDEX 00 22:04:73
INDEX 01 22:08:15


spectrum
Attachment:
spectrum.jpg
spectrum.jpg [ 349.21 KiB | Viewed 184 times ]

_________________


Top
 Profile E-mail  
 
Display posts from previous:  Sort by  
Post new topic Reply to topic  [ 1 post ] 

All times are UTC + 3 hours


Who is online

Users browsing this forum: No registered users and 3 guests


You cannot post new topics in this forum
You cannot reply to topics in this forum
You cannot edit your posts in this forum
You cannot delete your posts in this forum
You cannot post attachments in this forum

Search for:
Яндекс.Метрика
Powered by phpBB © 2000, 2002, 2005, 2007 phpBB Group