\m/ 80's metal \m/

Информационно-аналитический форум "80 см пыли" (In Search We Trust) "У нас никто никуда не спешит"
Me For You - http://me-4u.com
It is currently 25 Oct 2020

All times are UTC + 3 hours

Spoiler
Chat - temporary registration for foreign users (please leave your application here)







Post new topic Reply to topic  [ 5 posts ] 
Author Message
 
PostPosted: 09 Dec 2011 
Хиппей (support team)
User avatar
Joined: 30 Jul 2007
Posts: 119421
Lоcаtion: Киев (Kyiv, UA)
Age: 47
Name: Andrey
Paralysis - 1994 - Visions [flac]

Attachment:
front.jpg
front.jpg [ 1.78 MiB | Viewed 190 times ]


Genre: Technical Melodic Thrash
Location: Holland
Format: flac+cue+log+scans
Size: 466 Mb


Line-up:

Nick Davies - Vocals, Acoustic Guitars
Fausto Dhanis - Guitars
Jacques van Ham - Guitars, Backing Vocals
Roger de Rijke - Bass, Backing Vocals
Stephen van Haestregt - Drums, Percussion, Backing Vocals

    1. Altered States - 06:57
    2. Passages I - 00:50
    3. Experimental Factor Genocide - 05:32
    4. Lost in the Darkness - 04:40
    5. The Waters Cry - 04:43
    6. Point of No Return - 05:35
    7. Twisted - 03:29
    8. Tardis - 07:06
    9. Without a Shadow of a Doubt - 05:19
    10. Passages II - 01:02
    11. In Memoriam - 05:23
    12. Enemies Within - 05:18
    13. Escape from Yesterday / Sunitpar - 07:35

    TPT: 01:03:29

Thanx to spiralarch from MMT :thanx:

MultiUp l Narod

log
Exact Audio Copy V1.0 beta 1 from 15. November 2010

EAC extraction logfile from 3. November 2011, 16:55

Paralysis / Visions

Used drive : Optiarc DVD RW AD-7240S Adapter: 2 ID: 0

Read mode : Secure
Utilize accurate stream : Yes
Defeat audio cache : Yes
Make use of C2 pointers : No

Read offset correction : 48
Overread into Lead-In and Lead-Out : No
Fill up missing offset samples with silence : Yes
Delete leading and trailing silent blocks : No
Null samples used in CRC calculations : Yes
Used interface : Native Win32 interface for Win NT & 2000

Used output format : Internal WAV Routines
Sample format : 44.100 Hz; 16 Bit; Stereo


TOC of the extracted CD

Track | Start | Length | Start sector | End sector
---------------------------------------------------------
1 | 0:00.00 | 6:57.15 | 0 | 31289
2 | 6:57.15 | 0:50.28 | 31290 | 35067
3 | 7:47.43 | 5:32.47 | 35068 | 60014
4 | 13:20.15 | 4:40.13 | 60015 | 81027
5 | 18:00.28 | 4:43.02 | 81028 | 102254
6 | 22:43.30 | 5:35.58 | 102255 | 127437
7 | 28:19.13 | 3:29.17 | 127438 | 143129
8 | 31:48.30 | 7:06.13 | 143130 | 175092
9 | 38:54.43 | 5:19.55 | 175093 | 199072
10 | 44:14.23 | 1:02.52 | 199073 | 203774
11 | 45:17.00 | 5:23.53 | 203775 | 228052
12 | 50:40.53 | 5:18.15 | 228053 | 251917
13 | 55:58.68 | 7:35.42 | 251918 | 286084


Range status and errors

Selected range

Filename D:\spiralarch\Paralysis - Visions.wav

Peak level 82.1 %
Extraction speed 0.5 X
Range quality 100.0 %
Copy CRC E8F2A568
Copy OK

No errors occurred


AccurateRip summary

Track 1 not present in database
Track 2 not present in database
Track 3 not present in database
Track 4 not present in database
Track 5 not present in database
Track 6 not present in database
Track 7 not present in database
Track 8 not present in database
Track 9 not present in database
Track 10 not present in database
Track 11 not present in database
Track 12 not present in database
Track 13 not present in database

None of the tracks are present in the AccurateRip database

End of status report

==== Log checksum 36843FF927212FDF30C49064565C317D00358131CC32F5FCC9A090E00E3FE071 ====


cue
REM GENRE "Progressive Thrash Metal"
REM DATE 1994
REM DISCID A40EE60D
REM COMMENT "ExactAudioCopy v1.0b1"
PERFORMER "Paralysis"
TITLE "Visions"
FILE "Paralysis - Visions.wav" WAVE
TRACK 01 AUDIO
TITLE "Altered States"
PERFORMER "Paralysis"
INDEX 01 00:00:00
TRACK 02 AUDIO
TITLE "Passages I"
PERFORMER "Paralysis"
INDEX 00 06:55:48
INDEX 01 06:57:15
TRACK 03 AUDIO
TITLE "Experimental Factor Genocide"
PERFORMER "Paralysis"
INDEX 01 07:47:43
TRACK 04 AUDIO
TITLE "Lost In The Darkness"
PERFORMER "Paralysis"
INDEX 01 13:20:15
TRACK 05 AUDIO
TITLE "The Waters Cry"
PERFORMER "Paralysis"
INDEX 00 17:58:40
INDEX 01 18:00:28
TRACK 06 AUDIO
TITLE "Point Of No Return"
PERFORMER "Paralysis"
INDEX 01 22:43:30
TRACK 07 AUDIO
TITLE "Twisted"
PERFORMER "Paralysis"
INDEX 01 28:19:13
TRACK 08 AUDIO
TITLE "Tardis"
PERFORMER "Paralysis"
INDEX 01 31:48:30
TRACK 09 AUDIO
TITLE "Without A Shadow Of A Doubt"
PERFORMER "Paralysis"
INDEX 01 38:54:43
TRACK 10 AUDIO
TITLE "Passages II"
PERFORMER "Paralysis"
INDEX 01 44:14:23
TRACK 11 AUDIO
TITLE "In Memoriam"
PERFORMER "Paralysis"
INDEX 00 45:14:73
INDEX 01 45:17:00
TRACK 12 AUDIO
TITLE "Enemies Within"
PERFORMER "Paralysis"
INDEX 01 50:40:53
TRACK 13 AUDIO
TITLE "Escape From Yesterday / Sunitpar"
PERFORMER "Paralysis"
INDEX 00 55:56:73
INDEX 01 55:58:68


spectrum
Attachment:
spectrum.jpg
spectrum.jpg [ 385.56 KiB | Viewed 207 times ]

_________________


Top
 Profile E-mail  
 
 
PostPosted: 09 Dec 2011 
хард н хэвщик (support team)
User avatar
Joined: 02 Jun 2008
Posts: 16881
Lоcаtion: Н.Новгород
Age: 33
Name: Артем
Scatterbrain wrote:
Paralysis [1994] [CD] Visions [EAC-FLAC] by spiralarch [MeTa

у тебя скушалось немножко :oops:


Top
 Profile  
 
 
PostPosted: 09 Dec 2011 
Хиппей (support team)
User avatar
Joined: 30 Jul 2007
Posts: 119421
Lоcаtion: Киев (Kyiv, UA)
Age: 47
Name: Andrey
Дык, ограничение количества знаков в заглавие темы не дало всё впихнуть.
Да я и не старался еще подправить :pardon:

Сегодня нормально дооформлю :dance:

_________________


Top
 Profile E-mail  
 
 
PostPosted: 09 Dec 2011 
Power Metal Maniac
User avatar
Joined: 09 Aug 2008
Posts: 7238
Lоcаtion: Москва
Age: 42
Name: Егор
:thanx:

_________________
Long Live Metal!


Top
 Profile  
 
 
PostPosted: 09 Dec 2011 
Прокъмитолист
User avatar
Joined: 12 Aug 2007
Posts: 6776
Lоcаtion: Санктъ-Петербуркъ
Age: 53
Name: Олекъ
Paralysis - Point Of No Return
phpBB [youtube]

_________________
прокъметол - это музыко, от которово есть прок (ы)


Top
 Profile  
 
Display posts from previous:  Sort by  
Post new topic Reply to topic  [ 5 posts ] 

All times are UTC + 3 hours


Who is online

Users browsing this forum: No registered users and 1 guest


You cannot post new topics in this forum
You cannot reply to topics in this forum
You cannot edit your posts in this forum
You cannot delete your posts in this forum
You cannot post attachments in this forum

Search for:
Яндекс.Метрика
Powered by phpBB © 2000, 2002, 2005, 2007 phpBB Group