\m/ 80's metal \m/

Информационно-аналитический форум "80 см пыли" (In Search We Trust) "У нас никто никуда не спешит"
Me For You - http://me-4u.com
It is currently 29 Oct 2020

All times are UTC + 3 hours

Spoiler
Chat - temporary registration for foreign users (please leave your application here)







Post new topic Reply to topic  [ 4 posts ] 
Author Message
 
PostPosted: 23 Oct 2011 
Работнечег
User avatar
Joined: 28 Aug 2007
Posts: 6363
Lоcаtion: г. Москва
Age: 31
Name: Дима
Image
Image
Image

Band: Pride
Album: Believe In Me EP
Year: 1993
Label: Self Released
Genre: Melodic Rock
Coutry: UK
Format: Flac + Log + Cue + Covers/MP3@320 + Covers
Size: 101 Mb/ 37 Mb

Line-Up:
Lee Small - Vocals, percussion.
Des Emms - Guitars, Vocals.
Dave Bickley/Guitars, Keyboards, Vocals.
Jon Hayward - Bass, Vocals.
Derren Wootten - Drums, Percussion


Tracklist:
1. Believe In Me 03:46
2. Stand Up 03:30
3. Catch My Fall (Live) 03:56
4. Give It Up (Live) 03:02

LOG
Exact Audio Copy V0.99 prebeta 5 from 4. May 2009

EAC extraction logfile from 25. September 2011, 21:21

Pride / Believe In Me EP

Used drive : PIONEER DVD-RW DVR-116D Adapter: 0 ID: 0

Read mode : Secure
Utilize accurate stream : Yes
Defeat audio cache : Yes
Make use of C2 pointers : No

Read offset correction : 96
Overread into Lead-In and Lead-Out : No
Fill up missing offset samples with silence : Yes
Delete leading and trailing silent blocks : No
Null samples used in CRC calculations : Yes
Used interface : Native Win32 interface for Win NT & 2000

Used output format : User Defined Encoder
Selected bitrate : 32 kBit/s
Quality : High
Add ID3 tag : No
Command line compressor : C:\Program Files\Exact Audio Copy\Flac\flac.exe
Additional command line options : -6 -V %s


TOC of the extracted CD

Track | Start | Length | Start sector | End sector
---------------------------------------------------------
1 | 0:00.00 | 3:45.70 | 0 | 16944
2 | 3:45.70 | 3:30.37 | 16945 | 32731
3 | 7:16.32 | 3:56.25 | 32732 | 50456
4 | 11:12.57 | 3:01.58 | 50457 | 64089


Range status and errors

Selected range

Filename D:\Музыка\Lossless\Pride - Believe In Me EP (1993)\Pride - Believe In Me EP.wav

Peak level 100.0 %
Range quality 99.5 %
Copy CRC 11E3C27D
Copy OK

No errors occurred


AccurateRip summary

Track 1 not present in database
Track 2 not present in database
Track 3 not present in database
Track 4 not present in database

None of the tracks are present in the AccurateRip database

End of status report

CUE
REM GENRE "Heavy Metal"
REM DATE 1993
REM DISCID 2D035604
REM COMMENT "ExactAudioCopy v0.99pb5"
PERFORMER "Pride"
TITLE "Believe In Me EP"
FILE "Pride - Believe In Me EP.flac" WAVE
TRACK 01 AUDIO
TITLE "Believe In Me"
PERFORMER "Pride"
INDEX 01 00:00:00
TRACK 02 AUDIO
TITLE "Stand Up"
PERFORMER "Pride"
INDEX 01 03:45:70
TRACK 03 AUDIO
TITLE "Catch My Fall (Live)"
PERFORMER "Pride"
INDEX 01 07:16:32
TRACK 04 AUDIO
TITLE "Give It Up (Live)"
PERFORMER "Pride"
INDEX 00 11:10:50
INDEX 01 11:12:57


FLAC
MP3@320

За предоставленный диск спасибо spryt777! Думаю миник многим понравится ;)


Top
 Profile E-mail  
 
 
PostPosted: 23 Oct 2011 
Хиппей (support team)
User avatar
Joined: 30 Jul 2007
Posts: 119447
Lоcаtion: Киев (Kyiv, UA)
Age: 47
Name: Andrey
Робята, спасибо :thanx:

_________________


Top
 Profile E-mail  
 
 
PostPosted: 24 Oct 2011 
хард н хэвщик (support team)
User avatar
Joined: 02 Jun 2008
Posts: 16881
Lоcаtion: Н.Новгород
Age: 33
Name: Артем
Спасибо огромное Саня !!! :true:


Top
 Profile  
 
 
PostPosted: 13 Sep 2013 
Хиппей (support team)
User avatar
Joined: 30 Jul 2007
Posts: 119447
Lоcаtion: Киев (Kyiv, UA)
Age: 47
Name: Andrey
К сожалению для меня, это обычный AOR/Melodic Hard в духе сольного БорЖоми :fingal: Но миник весьма хорош :dance:

mirror: Narod

ps. С утра явно в топик потянутся как раз любители подобного стиля. Два года прошло и никто почти не отреагировал :vic:

_________________


Top
 Profile E-mail  
 
Display posts from previous:  Sort by  
Post new topic Reply to topic  [ 4 posts ] 

All times are UTC + 3 hours


Who is online

Users browsing this forum: No registered users and 1 guest


You cannot post new topics in this forum
You cannot reply to topics in this forum
You cannot edit your posts in this forum
You cannot delete your posts in this forum
You cannot post attachments in this forum

Search for:
Яндекс.Метрика
Powered by phpBB © 2000, 2002, 2005, 2007 phpBB Group