\m/ 80's metal \m/

Информационно-аналитический форум "80 см пыли" (In Search We Trust) "У нас никто никуда не спешит"
Me For You - http://me-4u.com
It is currently 22 Aug 2019

All times are UTC + 3 hours

Spoiler
Chat - temporary registration for foreign users (please leave your application here)







Post new topic Reply to topic  [ 6 posts ] 
Author Message
 
PostPosted: 20 Aug 2011 
Работнечег
User avatar
Joined: 28 Aug 2007
Posts: 5939
Lоcаtion: г. Москва
Age: 30
Name: Дима
Image

Band: Overdrive
Album: Three Corners To Nowhere
Year: 2006
Label: Karthago Records
Genre: Heavy Metal
Coutry: UK
Format: Flac + Log + Cue + Covers / MP3@320 kbps + Covers
Size: 432 Mb / 139 Mb

Line-Up:
Steve Farmer - Vocals/Bass (Marz)
Tracey W. Abbott - Guitars
Tim Hall - Keyboards/Vocals
Ian "Scratch" Padgett - Drums (Utter Pendragon, Marz)


Tracklist:
1. Three Corners To Nowhere 06:06
2. The Blaze Of Bronze 03:48
3. All Dogs Have Their Day 06:05
4. Lost Song Of A Lonely Man 06:25
5. The Power Of The Eagles 03:05
6. Cry Out Vesuvius 03:43
7. Marshall Law 04:39
8. All Souls Night 06:19
9. Trapped In Time 04:48
10. I Can Feel It 04:17
11. Continuum 03:05
12. Diamonds And Pearls 04:47
13. Nightmare (Recorded Live HOA Germany 2006) (Bonus Track) 03:53

LOG
Exact Audio Copy V0.99 prebeta 5 from 4. May 2009

EAC extraction logfile from 16. August 2011, 13:50

Overdrive / Three Corners To Nowhere

Used drive : PIONEER DVD-RW DVR-116D Adapter: 0 ID: 0

Read mode : Secure
Utilize accurate stream : Yes
Defeat audio cache : Yes
Make use of C2 pointers : No

Read offset correction : 96
Overread into Lead-In and Lead-Out : No
Fill up missing offset samples with silence : Yes
Delete leading and trailing silent blocks : No
Null samples used in CRC calculations : Yes
Used interface : Native Win32 interface for Win NT & 2000

Used output format : User Defined Encoder
Selected bitrate : 32 kBit/s
Quality : High
Add ID3 tag : No
Command line compressor : C:\Program Files\Exact Audio Copy\Flac\flac.exe
Additional command line options : -6 -V %s


TOC of the extracted CD

Track | Start | Length | Start sector | End sector
---------------------------------------------------------
1 | 0:00.00 | 6:05.48 | 0 | 27422
2 | 6:05.48 | 3:47.48 | 27423 | 44495
3 | 9:53.21 | 6:04.48 | 44496 | 71843
4 | 15:57.69 | 6:24.48 | 71844 | 100691
5 | 22:22.42 | 3:04.48 | 100692 | 114539
6 | 25:27.15 | 3:42.48 | 114540 | 131237
7 | 29:09.63 | 4:38.48 | 131238 | 152135
8 | 33:48.36 | 6:18.48 | 152136 | 180533
9 | 40:07.09 | 4:47.48 | 180534 | 202106
10 | 44:54.57 | 4:16.48 | 202107 | 221354
11 | 49:11.30 | 3:04.48 | 221355 | 235202
12 | 52:16.03 | 4:46.48 | 235203 | 256700
13 | 57:02.51 | 3:52.48 | 256701 | 274148


Range status and errors

Selected range

Filename D:\Музыка\Lossless\Overdrive - Three Cornes To Nowhere (2006)\Overdrive - Three Corners To Nowhere.wav

Peak level 100.0 %
Range quality 100.0 %
Copy CRC DA33C91C
Copy OK

No errors occurred


AccurateRip summary

Track 1 not present in database
Track 2 not present in database
Track 3 not present in database
Track 4 not present in database
Track 5 not present in database
Track 6 not present in database
Track 7 not present in database
Track 8 not present in database
Track 9 not present in database
Track 10 not present in database
Track 11 not present in database
Track 12 not present in database
Track 13 not present in database

None of the tracks are present in the AccurateRip database

End of status report

CUE
REM GENRE "Heavy Metal"
REM DATE 2006
REM DISCID C10E470D
REM COMMENT "ExactAudioCopy v0.99pb5"
PERFORMER "Overdrive"
TITLE "Three Corners To Nowhere"
FILE "Overdrive - Three Corners To Nowhere.flac" WAVE
TRACK 01 AUDIO
TITLE "Three Corners To Nowhere"
PERFORMER "Overdrive"
INDEX 01 00:00:00
TRACK 02 AUDIO
TITLE "The Blaze Of Bronze"
PERFORMER "Overdrive"
INDEX 01 06:05:48
TRACK 03 AUDIO
TITLE "All Dogs Have Their Day"
PERFORMER "Overdrive"
INDEX 01 09:53:21
TRACK 04 AUDIO
TITLE "Lost Song Of A Lonely Man"
PERFORMER "Overdrive"
INDEX 01 15:57:69
TRACK 05 AUDIO
TITLE "The Power Of The Eagles"
PERFORMER "Overdrive"
INDEX 01 22:22:42
TRACK 06 AUDIO
TITLE "Cry Out Vesuvius"
PERFORMER "Overdrive"
INDEX 01 25:27:15
TRACK 07 AUDIO
TITLE "Marshall Law"
PERFORMER "Overdrive"
INDEX 01 29:09:63
TRACK 08 AUDIO
TITLE "All Souls Night"
PERFORMER "Overdrive"
INDEX 01 33:48:36
TRACK 09 AUDIO
TITLE "Trapped In Time"
PERFORMER "Overdrive"
INDEX 01 40:07:09
TRACK 10 AUDIO
TITLE "I Can Feel It"
PERFORMER "Overdrive"
INDEX 01 44:54:57
TRACK 11 AUDIO
TITLE "Continuum"
PERFORMER "Overdrive"
INDEX 01 49:11:30
TRACK 12 AUDIO
TITLE "Diamond And Pearls"
PERFORMER "Overdrive"
INDEX 01 52:16:03
TRACK 13 AUDIO
TITLE "Nightmare (Recorded Live HOA Germany 2006)(Bonus)"
PERFORMER "Overdrive"
INDEX 01 57:02:51

Spectrum
Image


MP3@320kbps
FLAC

Хороший альбомчик, мне понравился побольше, чем 2005) Особенно All Souls Night стоит выделить. Вообщем-то почти вся дискография собрана на форуме, попробую теперь выиграть концертный альбом на ebay, хотя шансов мало :( Самый сильный по мне так первый альбом, вообщем первые два альбома более драйвовые нежели альбомы 2000-х годов.

Overdrive - On The Run (Single)(1981)(Reissued In 2004)
Overdrive - Dishonest Words (1990) (Reissued In 2004)
Overdrive - Home Sweet Home (1994)(Reissued In 2004)
Overdrive - On Wizard Ridge (2005)


Top
 Profile E-mail  
 
 
PostPosted: 20 Aug 2011 
Прокъмитолист
User avatar
Joined: 12 Aug 2007
Posts: 6590
Lоcаtion: Санктъ-Петербуркъ
Age: 51
Name: Олекъ
спасибо, Дим! :thanx:

_________________
прокъметол - это музыко, от которово есть прок (ы)


Top
 Profile  
 
 
PostPosted: 20 Aug 2011 
Хиппей (support team)
User avatar
Joined: 30 Jul 2007
Posts: 114037
Lоcаtion: Киев (Kyiv, UA)
Age: 46
Name: Andrey
:thanx:
mirror: MultiUp l Narod

_________________


Top
 Profile E-mail  
 
 
PostPosted: 20 Aug 2011 
А может смените мне статус?..
User avatar
Joined: 24 Dec 2008
Posts: 647
Age: 45
Name: Дмитрий
Спасибо за продолжение дискографии.


Top
 Profile  
 
 
PostPosted: 21 Aug 2011 
А может смените мне статус?..
User avatar
Joined: 30 Aug 2009
Posts: 824
Lоcаtion: Ачинск, Красноярский край
Age: 33
Name: Стас
Спасибо!!!


Top
 Profile E-mail  
 
 
PostPosted: 23 Jul 2012 
Труъ
User avatar
Joined: 05 Oct 2008
Posts: 194
Lоcаtion: Saint Petersburg
Age: 46
Name: Jesse
Благодарствую! Как раз все нужные альбомы собрались вместе! :thanx:


Top
 Profile  
 
Display posts from previous:  Sort by  
Post new topic Reply to topic  [ 6 posts ] 

All times are UTC + 3 hours


Who is online

Users browsing this forum: No registered users and 1 guest


You cannot post new topics in this forum
You cannot reply to topics in this forum
You cannot edit your posts in this forum
You cannot delete your posts in this forum
You cannot post attachments in this forum

Search for:
Яндекс.Метрика
Powered by phpBB © 2000, 2002, 2005, 2007 phpBB Group