\m/ 80's metal \m/

Информационно-аналитический форум "80 см пыли" (In Search We Trust) "У нас никто никуда не спешит"
Железнодорожная биржа - RailAgent
It is currently 21 Nov 2017

All times are UTC + 3 hours

Spoiler
Chat - temporary registration for foreign users (please leave your application here)







Post new topic Reply to topic  [ 4 posts ] 
Author Message
 
PostPosted: 20 Jul 2011 
Работнечег
User avatar
Joined: 28 Aug 2007
Posts: 5000
Lоcаtion: г. Москва
Age: 28
Name: Дима
Image

Band: Overdrive
Album: On The Run (Single)
Year: 1981
Label: Boring Grantham Records
Genre: Heavy Metal
Coutry: UK
Format: Flac + Log + Cue + Covers
Size: 64 Mb

Tracklist:
01. On The Run 04:23
02. Nightmare 03:12
03. Stonehenge 03:48

LOG
Exact Audio Copy V0.99 prebeta 5 from 4. May 2009

EAC extraction logfile from 13. June 2011, 14:16

Overdrive / On The Run (Single)

Used drive : PIONEER DVD-RW DVR-116D Adapter: 0 ID: 0

Read mode : Secure
Utilize accurate stream : Yes
Defeat audio cache : Yes
Make use of C2 pointers : No

Read offset correction : 96
Overread into Lead-In and Lead-Out : No
Fill up missing offset samples with silence : Yes
Delete leading and trailing silent blocks : No
Null samples used in CRC calculations : Yes
Used interface : Native Win32 interface for Win NT & 2000

Used output format : User Defined Encoder
Selected bitrate : 32 kBit/s
Quality : High
Add ID3 tag : No
Command line compressor : C:\Program Files\Exact Audio Copy\Flac\flac.exe
Additional command line options : -6 -V %s


TOC of the extracted CD

Track | Start | Length | Start sector | End sector
---------------------------------------------------------
1 | 0:00.01 | 4:23.35 | 1 | 19760
2 | 4:23.36 | 3:12.37 | 19761 | 34197
3 | 7:35.73 | 3:48.31 | 34198 | 51328


Range status and errors

Selected range

Filename D:\Музыка\Lossless\Overdrive - On The Run (Single) (1981)\Overdrive - On The Run (Single).wav

Peak level 95.6 %
Range quality 99.9 %
Copy CRC C5824115
Copy OK

No errors occurred


AccurateRip summary

Track 1 not present in database
Track 2 not present in database
Track 3 not present in database

None of the tracks are present in the AccurateRip database

End of status report

CUE
REM GENRE NWOBHM
REM DATE 1981
REM DISCID 1F02AC03
REM COMMENT "ExactAudioCopy v0.99pb5"
PERFORMER "Overdrive"
TITLE "On The Run (Single)"
FILE "Overdrive - On The Run (Single).flac" WAVE
TRACK 01 AUDIO
TITLE "On The Run"
PERFORMER "Overdrive"
INDEX 00 00:00:00
INDEX 01 00:00:01
TRACK 02 AUDIO
TITLE "Nightmare"
PERFORMER "Overdrive"
INDEX 01 04:23:36
TRACK 03 AUDIO
TITLE "Stonehenge"
PERFORMER "Overdrive"
INDEX 01 07:35:73


Narod.Ru


Top
 Profile E-mail  
 
 
PostPosted: 20 Jul 2011 
А может смените мне статус?..
Joined: 03 Jul 2009
Posts: 700
Lоcаtion: Serbia
Name: Laki
Great upload. Thanks


Last edited by glory11 on 21 Jul 2011, edited 1 time in total.

Top
 Profile E-mail  
 
 
PostPosted: 20 Jul 2011 
Прокъмитолист
User avatar
Joined: 12 Aug 2007
Posts: 6225
Lоcаtion: Санктъ-Петербуркъ
Age: 50
Name: Олекъ
спасибо, Дим! :thanx:

_________________
прокъметол - это музыко, от которово есть прок (ы)


Top
 Profile  
 
 
PostPosted: 21 Jul 2011 
Хиппей (support team)
User avatar
Joined: 30 Jul 2007
Posts: 95757
Lоcаtion: Киев (Kyiv, UA)
Age: 44
Name: Andrey
:thanx:
mirror: MultiUp l Narod

_________________


Top
 Profile E-mail  
 
Display posts from previous:  Sort by  
Post new topic Reply to topic  [ 4 posts ] 

All times are UTC + 3 hours


Who is online

Users browsing this forum: No registered users and 1 guest


You cannot post new topics in this forum
You cannot reply to topics in this forum
You cannot edit your posts in this forum
You cannot delete your posts in this forum
You cannot post attachments in this forum

Search for:
Яндекс.Метрика
Powered by phpBB © 2000, 2002, 2005, 2007 phpBB Group