\m/ 80's metal \m/

Информационно-аналитический форум "80 см пыли" (In Search We Trust) "У нас никто никуда не спешит"
Железнодорожная биржа - RailAgent
It is currently 21 Nov 2017

All times are UTC + 3 hours

Spoiler
Chat - temporary registration for foreign users (please leave your application here)







Post new topic Reply to topic  [ 5 posts ] 
Author Message
 
PostPosted: 19 Jun 2011 
Работнечег
User avatar
Joined: 28 Aug 2007
Posts: 5000
Lоcаtion: г. Москва
Age: 28
Name: Дима
Image

Band: Overdrive
Album: Home Sweet Home
Year: 1994
Label: Boring Grantham Records
Genre: Heavy Metal
Coutry: UK
Format: Flac + Log + Cue + Covers
Size: 214 Mb

Line-Up:
Roger McKown - Bass
Ian Hamilton - Vocals
Richard Mulhall - Drums
Tracey Abbott - Guitars
Reub - ???


Tracklist:
1. Wreckless Neckless 03:39
2. Kill or Cure 04:14
3. The Big Tree 03:08
4. Land of the Giants 05:17
5. Daddies Little Girl 04:10
6. Chauffeur 04:48
7. Blinkered in Love 03:31
8. Home Sweet Home 03:42

LOG
Exact Audio Copy V0.99 prebeta 5 from 4. May 2009

EAC extraction logfile from 13. June 2011, 14:00

Overdrive / Home Sweet Home

Used drive : PIONEER DVD-RW DVR-116D Adapter: 0 ID: 0

Read mode : Secure
Utilize accurate stream : Yes
Defeat audio cache : Yes
Make use of C2 pointers : No

Read offset correction : 96
Overread into Lead-In and Lead-Out : No
Fill up missing offset samples with silence : Yes
Delete leading and trailing silent blocks : No
Null samples used in CRC calculations : Yes
Used interface : Native Win32 interface for Win NT & 2000

Used output format : User Defined Encoder
Selected bitrate : 32 kBit/s
Quality : High
Add ID3 tag : No
Command line compressor : C:\Program Files\Exact Audio Copy\Flac\flac.exe
Additional command line options : -6 -V %s


TOC of the extracted CD

Track | Start | Length | Start sector | End sector
---------------------------------------------------------
1 | 0:00.01 | 3:39.39 | 1 | 16464
2 | 3:39.40 | 4:14.23 | 16465 | 35537
3 | 7:53.63 | 3:08.49 | 35538 | 49686
4 | 11:02.37 | 5:17.54 | 49687 | 73515
5 | 16:20.16 | 4:10.60 | 73516 | 92325
6 | 20:31.01 | 4:48.18 | 92326 | 113943
7 | 25:19.19 | 3:31.54 | 113944 | 129822
8 | 28:50.73 | 3:42.37 | 129823 | 146509


Range status and errors

Selected range

Filename D:\Музыка\Lossless\Overdrive - Home Sweet Home (A Day In The Life) (1994)\Overdrive - Home Sweet Home.wav

Peak level 100.0 %
Range quality 100.0 %
Copy CRC 82954E62
Copy OK

No errors occurred


AccurateRip summary

Track 1 not present in database
Track 2 not present in database
Track 3 not present in database
Track 4 not present in database
Track 5 not present in database
Track 6 not present in database
Track 7 not present in database
Track 8 not present in database

None of the tracks are present in the AccurateRip database

End of status report

CUE
REM GENRE "Heavy Metal"
REM DATE 1994
REM DISCID 5907A108
REM COMMENT "ExactAudioCopy v0.99pb5"
PERFORMER "Overdrive"
TITLE "Home Sweet Home"
FILE "Overdrive - Home Sweet Home.flac" WAVE
TRACK 01 AUDIO
TITLE "Wreckless Necklass"
PERFORMER "Overdrive"
INDEX 00 00:00:00
INDEX 01 00:00:01
TRACK 02 AUDIO
TITLE "Kill Or Cure"
PERFORMER "Overdrive"
INDEX 01 03:39:40
TRACK 03 AUDIO
TITLE "The Big Tree"
PERFORMER "Overdrive"
INDEX 01 07:53:63
TRACK 04 AUDIO
TITLE "Land Of The Giants"
PERFORMER "Overdrive"
INDEX 01 11:02:37
TRACK 05 AUDIO
TITLE "Daddies Little Girl"
PERFORMER "Overdrive"
INDEX 01 16:20:16
TRACK 06 AUDIO
TITLE "Chauffeur"
PERFORMER "Overdrive"
INDEX 01 20:31:01
TRACK 07 AUDIO
TITLE "Blinkered In Love"
PERFORMER "Overdrive"
INDEX 01 25:19:19
TRACK 08 AUDIO
TITLE "Home Sweet Home"
PERFORMER "Overdrive"
INDEX 01 28:50:73

Spectrum
Image


Narod.Ru

Кому понравился Dishonest Words, тот и в этом альбоме не разочаруется)


Top
 Profile E-mail  
 
 
PostPosted: 19 Jun 2011 
А может смените мне статус?..
User avatar
Joined: 24 Dec 2008
Posts: 553
Age: 43
Name: Дмитрий
:thanx:


Top
 Profile  
 
 
PostPosted: 19 Jun 2011 
А может смените мне статус?..
Joined: 03 Jul 2009
Posts: 700
Lоcаtion: Serbia
Name: Laki
Thank you !!!


Top
 Profile E-mail  
 
 
PostPosted: 19 Jun 2011 
Прокъмитолист
User avatar
Joined: 12 Aug 2007
Posts: 6225
Lоcаtion: Санктъ-Петербуркъ
Age: 50
Name: Олекъ
church wrote:
Кому понравился Dishonest Words, тот и в этом альбоме не разочаруется)

я тот еще не слушал, так что и в этом точно не разочаруюсь :crazy: :true: спасибо, Димка! :thanx:

_________________
прокъметол - это музыко, от которово есть прок (ы)


Top
 Profile  
 
 
PostPosted: 21 Jun 2011 
Хиппей (support team)
User avatar
Joined: 30 Jul 2007
Posts: 95757
Lоcаtion: Киев (Kyiv, UA)
Age: 44
Name: Andrey
:thanx:
mirror: MultiUp l Narod

_________________


Top
 Profile E-mail  
 
Display posts from previous:  Sort by  
Post new topic Reply to topic  [ 5 posts ] 

All times are UTC + 3 hours


Who is online

Users browsing this forum: No registered users and 1 guest


You cannot post new topics in this forum
You cannot reply to topics in this forum
You cannot edit your posts in this forum
You cannot delete your posts in this forum
You cannot post attachments in this forum

Search for:
Яндекс.Метрика
Powered by phpBB © 2000, 2002, 2005, 2007 phpBB Group