\m/ 80's metal \m/

Информационно-аналитический форум "80 см пыли" (In Search We Trust) "У нас никто никуда не спешит"
Железнодорожная биржа - RailAgent
It is currently 21 Nov 2017

All times are UTC + 3 hours

Spoiler
Chat - temporary registration for foreign users (please leave your application here)







Post new topic Reply to topic  [ 14 posts ] 
Author Message
 
PostPosted: 14 May 2011 
Работнечег
User avatar
Joined: 28 Aug 2007
Posts: 5000
Lоcаtion: г. Москва
Age: 28
Name: Дима
Image

Band: Overdrive
Album: Dishonest Words
Year: 1990
Label: Boring Grantham Records
Genre: Heavy Metal
Coutry: UK
Format: Flac + Log + Cue + Covers/mp3@320 kbps + Covers
Size: 278 Mb

Line-Up:
Roger McKown - Bass
Ian Hamilton - Vocals
Richard Mulhall - Drums
Tracey Abbott - Guitars


Tracklist:
1. Your Greasy Boyfriend
2. If Only
3. All Dogs Have their Day
4. The Bed With The Broken Springs
5. Wisdom And Faith
6. Play It Hard
7. Diamonds And Pearls
8. Dishonest Words

LOG
Exact Audio Copy V0.99 prebeta 5 from 4. May 2009

EAC extraction logfile from 14. May 2011, 15:42

Overdrive / Dishonest Words

Used drive : PIONEER DVD-RW DVR-116D Adapter: 0 ID: 0

Read mode : Secure
Utilize accurate stream : Yes
Defeat audio cache : Yes
Make use of C2 pointers : No

Read offset correction : 96
Overread into Lead-In and Lead-Out : No
Fill up missing offset samples with silence : Yes
Delete leading and trailing silent blocks : No
Null samples used in CRC calculations : Yes
Used interface : Native Win32 interface for Win NT & 2000

Used output format : User Defined Encoder
Selected bitrate : 32 kBit/s
Quality : High
Add ID3 tag : No
Command line compressor : C:\Program Files\Exact Audio Copy\Flac\flac.exe
Additional command line options : -6 -V %s


TOC of the extracted CD

Track | Start | Length | Start sector | End sector
---------------------------------------------------------
1 | 0:00.01 | 3:46.27 | 1 | 16977
2 | 3:46.28 | 3:44.63 | 16978 | 33840
3 | 7:31.16 | 6:11.29 | 33841 | 61694
4 | 13:42.45 | 4:29.59 | 61695 | 81928
5 | 18:12.29 | 6:06.34 | 81929 | 109412
6 | 24:18.63 | 2:33.20 | 109413 | 120907
7 | 26:52.08 | 5:07.22 | 120908 | 143954
8 | 31:59.30 | 4:27.38 | 143955 | 164017


Range status and errors

Selected range

Filename D:\Музыка\Lossless\Overdrive - Dishonest Words (1990)\Overdrive - Dishonest Words.wav

Peak level 98.1 %
Range quality 100.0 %
Copy CRC 3A0B4B63
Copy OK

No errors occurred


AccurateRip summary

Track 1 not present in database
Track 2 not present in database
Track 3 not present in database
Track 4 not present in database
Track 5 not present in database
Track 6 not present in database
Track 7 not present in database
Track 8 not present in database

None of the tracks are present in the AccurateRip database

End of status report

CUE
REM GENRE NWOBHM
REM DATE 1990
REM DISCID 5A088A08
REM COMMENT "ExactAudioCopy v0.99pb5"
PERFORMER "Overdrive"
TITLE "Dishonest Words"
FILE "Overdrive - Dishonest Words.flac" WAVE
TRACK 01 AUDIO
TITLE "Your Greasy Boyfriend"
PERFORMER "Overdrive"
INDEX 00 00:00:00
INDEX 01 00:00:01
TRACK 02 AUDIO
TITLE "If Only... "
PERFORMER "Overdrive"
INDEX 01 03:46:28
TRACK 03 AUDIO
TITLE "All Dogs Have Their Day"
PERFORMER "Overdrive"
INDEX 01 07:31:16
TRACK 04 AUDIO
TITLE "The Bed With The Broken Springs"
PERFORMER "Overdrive"
INDEX 01 13:42:45
TRACK 05 AUDIO
TITLE "Wisdom And Faith"
PERFORMER "Overdrive"
INDEX 01 18:12:29
TRACK 06 AUDIO
TITLE "Play It Hard"
PERFORMER "Overdrive"
INDEX 01 24:18:63
TRACK 07 AUDIO
TITLE "Diamonds & Pearls"
PERFORMER "Overdrive"
INDEX 01 26:52:08
TRACK 08 AUDIO
TITLE "Dishonest Words"
PERFORMER "Overdrive"
INDEX 01 31:59:30

Spectrum
Image


Narod.Ru (FLAC)
Narod.Ru (mp3)

Классный альбом, драйвовый и жёсткий, по сравнению с альбомом 2005 года. Собственно этот диск и другие закупал с оф. сайта, запись не чистили или совсем немного, так что как будто винил слушаешь. Андрюхе как главному любителю винильного потрескивания должно вдвойне понравиться)) Со спектрами всё нормально. Если качество устроит, то выложу Home Sweet Home (A Day in the Life). Есть также Three Corners to Nowhere.

Напомню, что альбом On Wizards Ridge (2005) можно скачать у нас форуме viewtopic.php?f=188&t=8238


Top
 Profile E-mail  
 
 
PostPosted: 14 May 2011 
Доктор энтомологии
User avatar
Joined: 22 Jan 2009
Posts: 8380
Lоcаtion: Даугавпилс
Age: 42
Name: Алексей
:thanx:
:shok: ого какая обложка. Сталино-гитлер? :oops:


Top
 Profile  
 
 
PostPosted: 15 May 2011 
Прокъмитолист
User avatar
Joined: 12 Aug 2007
Posts: 6225
Lоcаtion: Санктъ-Петербуркъ
Age: 50
Name: Олекъ
:thanx:

_________________
прокъметол - это музыко, от которово есть прок (ы)


Top
 Profile  
 
 
PostPosted: 15 May 2011 
Хиппей (support team)
User avatar
Joined: 30 Jul 2007
Posts: 95757
Lоcаtion: Киев (Kyiv, UA)
Age: 44
Name: Andrey
Димон, гранд мерси и уважуха :thanx: :true: :true: :true:

_________________


Top
 Profile E-mail  
 
 
PostPosted: 15 May 2011 
Генеральный thrasher
User avatar
Joined: 03 Oct 2008
Posts: 3237
Lоcаtion: Ханты-Мансийский АО
Age: 42
Name: Сергей
Интересно.Спасибо,Дима!


Top
 Profile  
 
 
PostPosted: 15 May 2011 
А может смените мне статус?..
User avatar
Joined: 24 Dec 2008
Posts: 553
Age: 43
Name: Дмитрий
Спасибо, не слышал таких.


Top
 Profile  
 
 
PostPosted: 21 May 2011 
хард н хэвщик (support team)
User avatar
Joined: 02 Jun 2008
Posts: 16879
Lоcаtion: Н.Новгород
Age: 30
Name: Артем
:true: Дима, спасибо !


Top
 Profile  
 
 
PostPosted: 22 May 2011 
А может смените мне статус?..
User avatar
Joined: 30 Aug 2009
Posts: 824
Lоcаtion: Ачинск, Красноярский край
Age: 31
Name: Стас
Спасибо, Дима!!!
church wrote:
Если качество устроит, то выложу Home Sweet Home (A Day in the Life). Есть также Three Corners to Nowhere.

Устроило, первый трек зацепил.


Top
 Profile E-mail  
 
 
PostPosted: 03 Jun 2011 
А может смените мне статус?..
User avatar
Joined: 30 Aug 2009
Posts: 824
Lоcаtion: Ачинск, Красноярский край
Age: 31
Name: Стас
Дима, если не затруднит, выложи Home Sweet Home (A Day in the Life) и Three Corners to Nowhere интересно услышать что там.


Top
 Profile E-mail  
 
 
PostPosted: 03 Jun 2011 
Работнечег
User avatar
Joined: 28 Aug 2007
Posts: 5000
Lоcаtion: г. Москва
Age: 28
Name: Дима
Выложу конечно, токо думаю что недели через полторы, у меня сейчас самый разгар диплома) не до выкладывания пока) если что напомни в личку ;)


Top
 Profile E-mail  
 
 
PostPosted: 04 Jun 2011 
udo
User avatar
Joined: 01 Mar 2008
Posts: 2343
Lоcаtion: Краснодар
Age: 46
Name: РОМАН
church wrote:
Есть также Three Corners to Nowhere

есть в 192, если надо кому залью


Top
 Profile E-mail  
 
 
PostPosted: 04 Jun 2011 
А может смените мне статус?..
User avatar
Joined: 30 Aug 2009
Posts: 824
Lоcаtion: Ачинск, Красноярский край
Age: 31
Name: Стас
odu wrote:
есть в 192, если надо кому залью

Спасибо не надо, было такое у меня.


Top
 Profile E-mail  
 
 
PostPosted: 06 Jul 2011 
А может смените мне статус?..
User avatar
Joined: 30 Aug 2009
Posts: 824
Lоcаtion: Ачинск, Красноярский край
Age: 31
Name: Стас
Дим, Three Corners to Nowhere будет?


Top
 Profile E-mail  
 
 
PostPosted: 06 Jul 2011 
Работнечег
User avatar
Joined: 28 Aug 2007
Posts: 5000
Lоcаtion: г. Москва
Age: 28
Name: Дима
100998 wrote:
Дим, Three Corners to Nowhere будет?

Всё будет, я помню, но не в самое ближайшее время) если что, не стесняйтесь в личку напоминать ;)


Top
 Profile E-mail  
 
Display posts from previous:  Sort by  
Post new topic Reply to topic  [ 14 posts ] 

All times are UTC + 3 hours


Who is online

Users browsing this forum: No registered users and 1 guest


You cannot post new topics in this forum
You cannot reply to topics in this forum
You cannot edit your posts in this forum
You cannot delete your posts in this forum
You cannot post attachments in this forum

Search for:
Яндекс.Метрика
Powered by phpBB © 2000, 2002, 2005, 2007 phpBB Group