\m/ 80's metal \m/

Информационно-аналитический форум "80 см пыли" (In Search We Trust) "У нас никто никуда не спешит"
Me For You - http://me-4u.com
It is currently 22 Aug 2019

All times are UTC + 3 hours

Spoiler
Chat - temporary registration for foreign users (please leave your application here)







Post new topic Reply to topic  [ 4 posts ] 
Author Message
 
PostPosted: 11 Nov 2010 
Генеральный thrasher
User avatar
Joined: 03 Oct 2008
Posts: 3717
Lоcаtion: Ханты-Мансийский АО
Age: 44
Name: Сергей
Image

Year:1995
Style:Power/Thrash Metal
Country:Brazil
Audio:Flac+Cue+Log+Covers
Source:my CD
Size:394Mb
Label:Fierce Recordings

Line-Up:
Claudio David - guitars
Pedro Alberto "Baza" Amorim - Vocal
Andre Marcio - drums
Eddy Weber - bass
Sergio Cichovicz - guitars

Tracklist:
1. The Front 01:12
2. My Rage 03:43
3. Manipulated Reality 04:47
4. How to Pray 04:31
5. Scars 04:00
6. Still Primitive 04:26
7. Just Another Day 04:05
8. School 04:18
9. Last Words 06:15
10. Postcard from Hell 03:45
11. Who's Guilty?? 04:25
12. Out of Control - A Fairy Tale 04:14
13. Nu Dus Otro E Refresco 00:57

Cue
REM GENRE "Thrash Metal"
REM DATE 1996
REM DISCID DB0C3D0E
REM COMMENT "ExactAudioCopy v0.99pb4"
PERFORMER "Overdose"
TITLE "Scars"
FILE "Overdose - Scars.flac" WAVE
TRACK 01 AUDIO
TITLE "Intro - Drums"
PERFORMER "Overdose"
FLAGS DCP
INDEX 01 00:00:00
TRACK 02 AUDIO
TITLE "The Front"
PERFORMER "Overdose"
FLAGS DCP
INDEX 00 01:10:70
INDEX 01 01:12:50
TRACK 03 AUDIO
TITLE "My Rage"
PERFORMER "Overdose"
FLAGS DCP
INDEX 00 04:53:45
INDEX 01 04:55:57
TRACK 04 AUDIO
TITLE "Manipulated Reality"
PERFORMER "Overdose"
FLAGS DCP
INDEX 00 09:41:34
INDEX 01 09:43:35
TRACK 05 AUDIO
TITLE "How To Pray"
PERFORMER "Overdose"
FLAGS DCP
INDEX 00 14:12:27
INDEX 01 14:15:22
TRACK 06 AUDIO
TITLE "Scars"
PERFORMER "Overdose"
FLAGS DCP
INDEX 00 18:12:36
INDEX 01 18:15:32
TRACK 07 AUDIO
TITLE "Still Primitive"
PERFORMER "Overdose"
FLAGS DCP
INDEX 00 22:38:47
INDEX 01 22:41:47
TRACK 08 AUDIO
TITLE "Just Another Day"
PERFORMER "Overdose"
FLAGS DCP
INDEX 00 26:44:55
INDEX 01 26:47:17
TRACK 09 AUDIO
TITLE "School"
PERFORMER "Overdose"
FLAGS DCP
INDEX 00 31:03:12
INDEX 01 31:05:17
TRACK 10 AUDIO
TITLE "Last Words"
PERFORMER "Overdose"
FLAGS DCP
INDEX 00 37:18:39
INDEX 01 37:20:57
TRACK 11 AUDIO
TITLE "Postcard From Hell"
PERFORMER "Overdose"
FLAGS DCP
INDEX 00 41:03:66
INDEX 01 41:06:05
TRACK 12 AUDIO
TITLE "Who's Guilty??"
PERFORMER "Overdose"
FLAGS DCP
INDEX 00 45:28:55
INDEX 01 45:31:10
TRACK 13 AUDIO
TITLE "Out Of Control - A Fairy Tale"
PERFORMER "Overdose"
FLAGS DCP
INDEX 00 49:43:12
INDEX 01 49:45:35
TRACK 14 AUDIO
TITLE "Nu Dus Otro E Refresco"
PERFORMER "Overdose"
FLAGS DCP
INDEX 00 50:40:54
INDEX 01 50:42:52


Log
Exact Audio Copy V0.99 prebeta 4 from 23. January 2008

Отчёт EAC об извлечении, выполненном 6. ноября 2010, 11:04

Overdose / Scars

Дисковод: TSSTcorpCDDVDW SH-S202N Adapter: 0 ID: 1

Режим чтения : Достоверность
Использование точного потока : Да
Отключение кэша аудио : Да
Использование указателей C2 : Нет

Коррекция смещения при чтении : 6
Способность читать области Lead-in и Lead-out : Нет
Заполнение пропущенных сэмплов тишиной : Да
Удаление блоков с тишиной в начале и конце : Нет
При вычислениях CRC использовались нулевые сэмплы : Да
Интерфейс : Установленный внешний ASPI-интерфейс

Выходной формат : Пользовательский кодировщик
Выбранный битрейт : 768 kBit/s
Качество : Высокий
Добавление ID3-тэга : Нет
Утилита сжатия : C:\Program Files\Exact Audio Copy\FLAC\FLAC.EXE
Дополнительные параметры : -6 -V -T "ARTIST=%a" -T "TITLE=%t" -T "ALBUM=%g" -T "DATE=%y" -T "TRACKNUMBER=%n" -T "GENRE=%m" -T "COMMENT=%e" %s -o %d


TOC извлечённого CD

Трек | Старт | Длительность | Начальный сектор | Конечный сектор
---------------------------------------------------------------------
1 | 0:00.00 | 1:12.50 | 0 | 5449
2 | 1:12.50 | 3:43.07 | 5450 | 22181
3 | 4:55.57 | 4:47.53 | 22182 | 43759
4 | 9:43.35 | 4:31.62 | 43760 | 64146
5 | 14:15.22 | 4:00.10 | 64147 | 82156
6 | 18:15.32 | 4:26.15 | 82157 | 102121
7 | 22:41.47 | 4:05.45 | 102122 | 120541
8 | 26:47.17 | 4:18.00 | 120542 | 139891
9 | 31:05.17 | 6:15.40 | 139892 | 168056
10 | 37:20.57 | 3:45.23 | 168057 | 184954
11 | 41:06.05 | 4:25.05 | 184955 | 204834
12 | 45:31.10 | 4:14.25 | 204835 | 223909
13 | 49:45.35 | 0:57.17 | 223910 | 228201
14 | 50:42.52 | 1:31.14 | 228202 | 235040


Характеристики диапазона извлечения и сообщения об ошибках

Выбранный диапазон

Имя файла F:\Лоси\O\Overdose - Scars.wav

Пиковый уровень 93.6 %
Качество диапазона 100.0 %
CRC копии 9AA1BE85
Копирование... OK

Ошибок не произошло


AccurateRip: сводка

Трек 1 точное извлечение (доверие 1) [4CC9CF9B]
Трек 2 точное извлечение (доверие 1) [D4C30BCE]
Трек 3 точное извлечение (доверие 1) [96E9C29E]
Трек 4 точное извлечение (доверие 1) [CBC8D104]
Трек 5 точное извлечение (доверие 1) [6F75798C]
Трек 6 точность не определена (достоверность 1) [D53FA896], AccurateRip вернул [D9EA443E]
Трек 7 точное извлечение (доверие 1) [57E5FFDF]
Трек 8 точность не определена (достоверность 1) [21FAB054], AccurateRip вернул [1EE9FC98]
Трек 9 точное извлечение (доверие 1) [7FF151DE]
Трек 10 точное извлечение (доверие 1) [6F2B1A49]
Трек 11 точное извлечение (доверие 1) [350A833A]
Трек 12 точность не определена (достоверность 1) [20C8F809], AccurateRip вернул [6153E49D]
Трек 13 точное извлечение (доверие 1) [F5C71F92]
Трек 14 точное извлечение (доверие 1) [30CDC972]

11 трек(и) скопированы точно
3 трек(и) не удалось проверить на точность

Некоторые треки не прошли проверку на точность

Конец отчёта


MEGAUPLOAD


Top
 Profile  
 
 
PostPosted: 11 Nov 2010 
Прокъмитолист
User avatar
Joined: 12 Aug 2007
Posts: 6590
Lоcаtion: Санктъ-Петербуркъ
Age: 51
Name: Олекъ
спасибо, Серёга! :thanx: :true:

_________________
прокъметол - это музыко, от которово есть прок (ы)


Top
 Profile  
 
 
PostPosted: 11 Nov 2010 
Gretzky must die
User avatar
Joined: 16 Sep 2010
Posts: 265
Lоcаtion: Московская обл.
Name: Андрей
Спасибо ! Не слышал этой банды, хоть название и на слуху было. :thanx: :thanx: :thanx:


Top
 Profile  
 
 
PostPosted: 06 Jan 2011 
Работнечег
User avatar
Joined: 28 Aug 2007
Posts: 5939
Lоcаtion: г. Москва
Age: 30
Name: Дима
Спасибо Серёг! Может и скачаю этот альбом, хотя насколько я помню, мне он не очень понравился, первые альбомы лучше, а здесь группа куда-то в эксперименты ударилась...


Top
 Profile E-mail  
 
Display posts from previous:  Sort by  
Post new topic Reply to topic  [ 4 posts ] 

All times are UTC + 3 hours


Who is online

Users browsing this forum: No registered users and 1 guest


You cannot post new topics in this forum
You cannot reply to topics in this forum
You cannot edit your posts in this forum
You cannot delete your posts in this forum
You cannot post attachments in this forum

Search for:
Яндекс.Метрика
Powered by phpBB © 2000, 2002, 2005, 2007 phpBB Group