\m/ 80's metal \m/

Информационно-аналитический форум "80 см пыли" (In Search We Trust) "У нас никто никуда не спешит"
Железнодорожная биржа - RailAgent
It is currently 21 Nov 2017

All times are UTC + 3 hours

Spoiler
Chat - temporary registration for foreign users (please leave your application here)







Post new topic Reply to topic  [ 9 posts ] 
Author Message
 
PostPosted: 03 Jun 2010 
ыыыы
User avatar
Joined: 17 May 2009
Posts: 952
Lоcаtion: Пушкино, МО
Age: 39
Name: Дмитрий
Бесплатный боянчик "Диарея безумца" :cow:


Image Image

Жанр: Heavy Metal
Происхождение исполнителя: Англия
Год издания: 1981
Год издания данного носителя: 1986
Страна-производитель носителя: Япония
Аудио кодек: FLAC
Тип рипа: image+.cue
Битрейт аудио: lossless
Продолжительность: 43:23
Рип: Собственный
Лейбл: JET/CBS-SONY
Каталоговый номер: 32DP-416
Матрица: 32DP-416 11A1 +++++ (SONY)

Треклист:
1. Over the Mountain 04:31
2. Flying High Again 04:44
3. You Can't Kill Rock & Roll 06:59
4. Believer 05:18
5. Little Dolls 05:39
6. Tonight 05:50
7. S.A.T.O. 04:07
8. Diary of a Madman 06:15

"Куй"
REM GENRE "Hard Rock"
REM DATE 1981
REM DISCID 6E0A2B08
REM COMMENT "ExactAudioCopy v0.99pb5"
PERFORMER "Ozzy Osbourne"
TITLE "Diary Of A Madman [32DP-416]"
FILE "Ozzy Osbourne - Diary Of A Madman [32DP-416].flac" WAVE
TRACK 01 AUDIO
TITLE "Over The Mountain"
PERFORMER "Ozzy Osbourne"
INDEX 01 00:00:00
TRACK 02 AUDIO
TITLE "Flying High Again"
PERFORMER "Ozzy Osbourne"
INDEX 01 04:31:35
TRACK 03 AUDIO
TITLE "You Can't Kill Rock And Roll"
PERFORMER "Ozzy Osbourne"
INDEX 01 09:15:20
TRACK 04 AUDIO
TITLE "Believer"
PERFORMER "Ozzy Osbourne"
INDEX 01 16:14:17
TRACK 05 AUDIO
TITLE "Little Dolls"
PERFORMER "Ozzy Osbourne"
INDEX 00 21:30:25
INDEX 01 21:32:15
TRACK 06 AUDIO
TITLE "Tonight"
PERFORMER "Ozzy Osbourne"
INDEX 01 27:11:15
TRACK 07 AUDIO
TITLE "S.A.T.O."
PERFORMER "Ozzy Osbourne"
INDEX 01 33:01:32
TRACK 08 AUDIO
TITLE "Diary Of A Madman"
PERFORMER "Ozzy Osbourne"
INDEX 01 37:08:25


"Лог"
Exact Audio Copy V0.99 prebeta 5 from 4. May 2009

Отчёт EAC об извлечении, выполненном 18. мая 2010, 22:26

Ozzy Osbourne / Diary Of A Madman [32DP-416]

Дисковод: MATSHITADVD-RAM UJ-850S Adapter: 0 ID: 0

Режим чтения : Достоверность
Использование точного потока : Да
Отключение кэша аудио : Да
Использование указателей C2 : Нет

Коррекция смещения при чтении : 102
Способность читать области Lead-in и Lead-out : Нет
Заполнение пропущенных сэмплов тишиной : Да
Удаление блоков с тишиной в начале и конце : Нет
При вычислениях CRC использовались нулевые сэмплы : Да
Интерфейс : Установленный внешний ASPI-интерфейс

Выходной формат : Пользовательский кодировщик
Выбранный битрейт : 128 kBit/s
Качество : Высокий
Добавление ID3-тэга : Нет
Утилита сжатия : C:\Program Files\Exact Audio Copy\Flac\flac.exe
Дополнительные параметры : -6 -V -T "artist=%a" -T "title=%t" -T "album=%g" -T "date=%y" -T "tracknumber=%n" -T "genre=%m" -T "comment=EAC 0.99beta5 / FLAC 1.1.0 q6" %s


TOC извлечённого CD

Трек | Старт | Длительность | Начальный сектор | Конечный сектор
---------------------------------------------------------------------
1 | 0:00.00 | 4:31.35 | 0 | 20359
2 | 4:31.35 | 4:43.60 | 20360 | 41644
3 | 9:15.20 | 6:58.72 | 41645 | 73066
4 | 16:14.17 | 5:17.73 | 73067 | 96914
5 | 21:32.15 | 5:39.00 | 96915 | 122339
6 | 27:11.15 | 5:50.17 | 122340 | 148606
7 | 33:01.32 | 4:06.68 | 148607 | 167124
8 | 37:08.25 | 6:15.25 | 167125 | 195274


Характеристики диапазона извлечения и сообщения об ошибках

Выбранный диапазон

Имя файла Y:\Музыка\Ozzy Osbourne\1981 Diary Of A Madman\Ozzy Osbourne - Diary Of A Madman [32DP-416].wav

Пиковый уровень 83.6 %
Качество диапазона 100.0 %
CRC копии 401CB3A0
Копирование... OK

Ошибок не произошло


AccurateRip: сводка

Трек 1 точное извлечение (доверие 8) [8B9C7C5D]
Трек 2 точное извлечение (доверие 8) [C61882E8]
Трек 3 точное извлечение (доверие 8) [5D649820]
Трек 4 точное извлечение (доверие 8) [631DA7D6]
Трек 5 точное извлечение (доверие 8) [84CC57A6]
Трек 6 точное извлечение (доверие 8) [D6C293C4]
Трек 7 точное извлечение (доверие 8) [876D3EC2]
Трек 8 точное извлечение (доверие 8) [32558EB0]

Все треки извлечены точно

Конец отчёта


Состав:
Ozzy Osbourne: Vocals
Randy Rhoads: Guitars
Bob Daisley: Bass
Don Airey: Keyboards
Lee Kerslake: Drums

32DP-416

_________________
Витасу до Даймонда как Алсу до Руссоса | При переразмещении - спрашивать разрешение!!


Last edited by iezuit on 04 Jun 2010, edited 2 times in total.

Top
 Profile  
 
 
PostPosted: 03 Jun 2010 
Персональный статус
Joined: 14 May 2010
Posts: 236
Age: 36
Name: Денис
:gra:

это товарищи.. мега-лось :los:

кто не согласен, пусть попробует купить :nunu:


Top
 Profile  
 
 
PostPosted: 03 Jun 2010 
ыыыы
User avatar
Joined: 17 May 2009
Posts: 952
Lоcаtion: Пушкино, МО
Age: 39
Name: Дмитрий
Mega Elk"
Image

disabled wrote:
кто не согласен, пусть попробует купить :nunu:

Таки сначала найти :crazy:

_________________
Витасу до Даймонда как Алсу до Руссоса | При переразмещении - спрашивать разрешение!!


Last edited by iezuit on 03 Jun 2010, edited 1 time in total.

Top
 Profile  
 
 
PostPosted: 03 Jun 2010 
Прокъмитолист
User avatar
Joined: 12 Aug 2007
Posts: 6225
Lоcаtion: Санктъ-Петербуркъ
Age: 50
Name: Олекъ
disabled wrote:
это товарищи.. мега-лось

мега-лось у тебя на аватаре, Денис. а Оззик - так, олень по сравнению с ним :crazy:

_________________
прокъметол - это музыко, от которово есть прок (ы)


Top
 Profile  
 
 
PostPosted: 03 Jun 2010 
Персональный статус
Joined: 14 May 2010
Posts: 236
Age: 36
Name: Денис
Ronnie James Dio R.I.P.

Его ранние японские первопрессные лоси, похоже, тоже весьма редки.

Про Оззи не совсем согласен.. но это уже холивары. Человек умер, Оззи сказал хорошие слова. Война окончена.


Top
 Profile  
 
 
PostPosted: 03 Jun 2010 
ыыыы
User avatar
Joined: 17 May 2009
Posts: 952
Lоcаtion: Пушкино, МО
Age: 39
Name: Дмитрий
disabled wrote:
Ronnie James Dio R.I.P.

Его ранние японские первопрессные лоси, похоже, тоже весьма редки.

Про Оззи не совсем согласен.. но это уже холивары. Человек умер, Оззи сказал хорошие слова. Война окончена.

Очень правильные слова!

_________________
Витасу до Даймонда как Алсу до Руссоса | При переразмещении - спрашивать разрешение!!


Top
 Profile  
 
 
PostPosted: 03 Jun 2010 
Прокъмитолист
User avatar
Joined: 12 Aug 2007
Posts: 6225
Lоcаtion: Санктъ-Петербуркъ
Age: 50
Name: Олекъ
при чем тут холивары? мои слова вообще (а с таким смайликом :crazy: в особенности) не стоит воспринимать без чувства юмора ;) а Оззику дай бог здоровья и ваще: олень - это тоже почетно :true:

_________________
прокъметол - это музыко, от которово есть прок (ы)


Top
 Profile  
 
 
PostPosted: 03 Jun 2010 
Персональный статус
Joined: 14 May 2010
Posts: 236
Age: 36
Name: Денис
Миру - мир! :smile:


Top
 Profile  
 
 
PostPosted: 23 Sep 2010 
А может смените мне статус?..
User avatar
Joined: 24 Dec 2008
Posts: 553
Age: 43
Name: Дмитрий
Спасибо.


Top
 Profile  
 
Display posts from previous:  Sort by  
Post new topic Reply to topic  [ 9 posts ] 

All times are UTC + 3 hours


Who is online

Users browsing this forum: No registered users and 1 guest


You cannot post new topics in this forum
You cannot reply to topics in this forum
You cannot edit your posts in this forum
You cannot delete your posts in this forum
You cannot post attachments in this forum

Search for:
Яндекс.Метрика
Powered by phpBB © 2000, 2002, 2005, 2007 phpBB Group