\m/ 80's metal \m/

Информационно-аналитический форум "80 см пыли" (In Search We Trust) "У нас никто никуда не спешит"
Железнодорожная биржа - RailAgent
It is currently 24 Nov 2017

All times are UTC + 3 hours

Spoiler
Chat - temporary registration for foreign users (please leave your application here)







Post new topic Reply to topic  [ 18 posts ] 
Author Message
 
PostPosted: 13 Apr 2010 
ыыыы
User avatar
Joined: 17 May 2009
Posts: 952
Lоcаtion: Пушкино, МО
Age: 39
Name: Дмитрий
Image


Жанр: Heavy Metal
Происхождение исполнителя: США
Год издания: 1988
Год издания данного носителя: 1988
Страна-производитель носителя: Япония
Аудио кодек: FLAC
Тип рипа: image+.cue
Битрейт аудио: lossless
Продолжительность: 36:20
Рип: Собственный
Лейбл: VICTOR
Каталоговый номер: VDP-1309
Матрица: VDP-1309-1-A1C 11 (JVC)

Треклист:
1. 12 O'Clock High 03:06
2. Love Action 02:28
3. She Was the One 04:16
4. I Get What I Want 02:28
5. Serenade to the Court 01:16
6. Modern Day King 04:34
7. Stranger Tonight 03:49
8. Time and Time Again 02:43
9. I'm Gonna Get You 03:17
10. Push 02:30
11. Fight For Your Life 05:54

"Куй"
REM GENRE "Heavy Metal"
REM DATE 1988
REM DISCID 9908840B
REM COMMENT "ExactAudioCopy v0.99pb5"
PERFORMER "Odin"
TITLE "Fight For Your Life [VDP-1309]"
FILE "Odin - Fight For Your Life [VDP-1309].flac" WAVE
TRACK 01 AUDIO
TITLE "12 O' Clock High"
PERFORMER "Odin"
INDEX 00 00:00:00
INDEX 01 00:00:37
TRACK 02 AUDIO
TITLE "Love Action"
PERFORMER "Odin"
INDEX 00 03:05:42
INDEX 01 03:06:72
TRACK 03 AUDIO
TITLE "She Was The One"
PERFORMER "Odin"
INDEX 00 05:32:12
INDEX 01 05:34:50
TRACK 04 AUDIO
TITLE "I Get What I Want"
PERFORMER "Odin"
INDEX 00 09:49:19
INDEX 01 09:50:37
TRACK 05 AUDIO
TITLE "Serenade To The Court"
PERFORMER "Odin"
INDEX 00 12:16:42
INDEX 01 12:18:30
TRACK 06 AUDIO
TITLE "Mordern Day King"
PERFORMER "Odin"
INDEX 00 13:34:64
INDEX 01 13:34:65
TRACK 07 AUDIO
TITLE "Stranger Tonight"
PERFORMER "Odin"
INDEX 00 18:07:17
INDEX 01 18:08:37
TRACK 08 AUDIO
TITLE "Time And Time Again"
PERFORMER "Odin"
INDEX 00 21:55:42
INDEX 01 21:57:02
TRACK 09 AUDIO
TITLE "I'm Gonna Get You"
PERFORMER "Odin"
INDEX 00 24:39:53
INDEX 01 24:40:32
TRACK 10 AUDIO
TITLE "Push "
PERFORMER "Odin"
INDEX 00 27:56:64
INDEX 01 27:56:72
TRACK 11 AUDIO
TITLE "Fight For Your Life"
PERFORMER "Odin"
INDEX 00 30:23:57
INDEX 01 30:26:37


"Лог"
Exact Audio Copy V0.99 prebeta 5 from 4. May 2009

EAC extraction logfile from 13. April 2010, 10:31

Odin / Fight For Your Life [VDP-1309]

Used drive : Optiarc DVD RW AD-7200A Adapter: 0 ID: 0

Read mode : Secure
Utilize accurate stream : Yes
Defeat audio cache : Yes
Make use of C2 pointers : No

Read offset correction : 48
Overread into Lead-In and Lead-Out : No
Fill up missing offset samples with silence : Yes
Delete leading and trailing silent blocks : No
Null samples used in CRC calculations : Yes
Used interface : Native Win32 interface for Win NT & 2000

Used output format : User Defined Encoder
Selected bitrate : 128 kBit/s
Quality : High
Add ID3 tag : No
Command line compressor : C:\Program Files\Exact Audio Copy\Flac\flac.exe
Additional command line options : -8 -V -T "artist=%a" -T "title=%t" -T "album=%g" -T "date=%y" -T "tracknumber=%n" -T "genre=%m" -T "comment=EAC 0.9beta4 / FLAC 1.1.0 q6" %s


TOC of the extracted CD

Track | Start | Length | Start sector | End sector
---------------------------------------------------------
1 | 0:00.37 | 3:06.35 | 37 | 14021
2 | 3:06.72 | 2:27.53 | 14022 | 25099
3 | 5:34.50 | 4:15.62 | 25100 | 44286
4 | 9:50.37 | 2:27.68 | 44287 | 55379
5 | 12:18.30 | 1:16.35 | 55380 | 61114
6 | 13:34.65 | 4:33.47 | 61115 | 81636
7 | 18:08.37 | 3:48.40 | 81637 | 98776
8 | 21:57.02 | 2:43.30 | 98777 | 111031
9 | 24:40.32 | 3:16.40 | 111032 | 125771
10 | 27:56.72 | 2:29.40 | 125772 | 136986
11 | 30:26.37 | 5:54.08 | 136987 | 163544


Range status and errors

Selected range

Filename Y:\Музыка\Odin\1988 Fight For Your Life\Odin - Fight For Your Life [VDP-1309].wav

Peak level 100.0 %
Range quality 100.0 %
Copy CRC 7FE00185
Copy OK

No errors occurred

End of status report


Состав:
Randy "O": Vocals
Jeff Duncan: Guitar
Aaron Samson: Bass
Shawn Duncan: Drums

Народ

_________________
Витасу до Даймонда как Алсу до Руссоса | При переразмещении - спрашивать разрешение!!


Top
 Profile  
 
 
PostPosted: 13 Apr 2010 
А может смените мне статус?..
Joined: 03 Jul 2009
Posts: 701
Lоcаtion: Serbia
Name: Laki
Thanks :thanx:


Top
 Profile E-mail  
 
 
PostPosted: 13 Apr 2010 
Персональный статус
Joined: 06 Oct 2007
Posts: 339
Спасибо! :true:


Top
 Profile  
 
 
PostPosted: 13 Apr 2010 
Прокъмитолист
User avatar
Joined: 12 Aug 2007
Posts: 6232
Lоcаtion: Санктъ-Петербуркъ
Age: 50
Name: Олекъ
за "одного" спасибо, Дим! :true: а "два" будет?

_________________
прокъметол - это музыко, от которово есть прок (ы)


Top
 Profile  
 
 
PostPosted: 13 Apr 2010 
хард н хэвщик (support team)
User avatar
Joined: 02 Jun 2008
Posts: 16879
Lоcаtion: Н.Новгород
Age: 30
Name: Артем
spiralarch wrote:
а "два" будет?

:vic:


Top
 Profile  
 
 
PostPosted: 13 Apr 2010 
ыыыы
User avatar
Joined: 17 May 2009
Posts: 952
Lоcаtion: Пушкино, МО
Age: 39
Name: Дмитрий
spiralarch
а два- это что????

_________________
Витасу до Даймонда как Алсу до Руссоса | При переразмещении - спрашивать разрешение!!


Top
 Profile  
 
 
PostPosted: 13 Apr 2010 
Прокъмитолист
User avatar
Joined: 12 Aug 2007
Posts: 6232
Lоcаtion: Санктъ-Петербуркъ
Age: 50
Name: Олекъ
ну кагбе Odin, Dva :crazy: (шутю я, имел в виду предыдущий альбом, он вроде тоже на викторе выходил :oops: )

_________________
прокъметол - это музыко, от которово есть прок (ы)


Top
 Profile  
 
 
PostPosted: 13 Apr 2010 
ыыыы
User avatar
Joined: 17 May 2009
Posts: 952
Lоcаtion: Пушкино, МО
Age: 39
Name: Дмитрий
spiralarch
а я его даже и не видел ишшо! если срастётся деньги+диск то получу и выложу))

_________________
Витасу до Даймонда как Алсу до Руссоса | При переразмещении - спрашивать разрешение!!


Top
 Profile  
 
 
PostPosted: 13 Apr 2010 
Old Time Rock`n`Roll
User avatar
Joined: 23 Jun 2008
Posts: 3315
Lоcаtion: г.Ульяновск
Age: 39
Name: Константин
Спасибо за альбом :true:
Помню, группа засветилась в Упадке западной цивилизациии-2, вокалист щеголял в кожаных штанах с большими дырами в районе пояса, когда спросили зачем, ответил - чтоб мужские причиндалы вентилировались :crazy:
Еще раз спасибо.


Top
 Profile  
 
 
PostPosted: 13 Apr 2010 
А может смените мне статус?..
User avatar
Joined: 24 Dec 2008
Posts: 554
Age: 43
Name: Дмитрий
:thanx: Ознакомлюсь.


Top
 Profile  
 
 
PostPosted: 13 Apr 2010 
Труъ
User avatar
Joined: 15 Dec 2008
Posts: 131
Lоcаtion: Донбасс
Age: 45
Name: Евгений
Спасибо! Японец всё-таки...


Top
 Profile  
 
 
PostPosted: 09 May 2010 
Хиппей (support team)
User avatar
Joined: 30 Jul 2007
Posts: 95966
Lоcаtion: Киев (Kyiv, UA)
Age: 44
Name: Andrey
:thanx:

_________________


Top
 Profile E-mail  
 
 
PostPosted: 09 May 2010 
ыыыы
User avatar
Joined: 17 May 2009
Posts: 952
Lоcаtion: Пушкино, МО
Age: 39
Name: Дмитрий
Quote:
Японец всё-таки...

Дык этот альбом изначально на Викторе и выпускался- в Японии

_________________
Витасу до Даймонда как Алсу до Руссоса | При переразмещении - спрашивать разрешение!!


Top
 Profile  
 
 
PostPosted: 13 May 2010 
Хиппей (support team)
User avatar
Joined: 30 Jul 2007
Posts: 95966
Lоcаtion: Киев (Kyiv, UA)
Age: 44
Name: Andrey
О, кто подскажет, не эта ли группа фигурировала в фильме - The Metal Years - 1988 - The Decline Of Western Civilization Part II...? :oops:

_________________


Top
 Profile E-mail  
 
 
PostPosted: 13 May 2010 
Old Time Rock`n`Roll
User avatar
Joined: 23 Jun 2008
Posts: 3315
Lоcаtion: г.Ульяновск
Age: 39
Name: Константин
Они самые.


Top
 Profile  
 
 
PostPosted: 13 May 2010 
Хиппей (support team)
User avatar
Joined: 30 Jul 2007
Posts: 95966
Lоcаtion: Киев (Kyiv, UA)
Age: 44
Name: Andrey
О, спасибо, Костя. Смотрю кино дальше :dance:

_________________


Top
 Profile E-mail  
 
 
PostPosted: 13 May 2010 
Old Time Rock`n`Roll
User avatar
Joined: 23 Jun 2008
Posts: 3315
Lоcаtion: г.Ульяновск
Age: 39
Name: Константин
Благодаря фильму понятно почему не добились успеха London - даже советский флаг не смогли нормально сжечь на клубном выступлении))


Top
 Profile  
 
 
PostPosted: 28 May 2010 
metallpaparazzy
User avatar
Joined: 20 Dec 2009
Posts: 674
Lоcаtion: Днепропетровск
Age: 42
Name: Геннадий
Scatterbrain wrote:
О, кто подскажет, не эта ли группа фигурировала в фильме - The Metal Years - 1988 - The Decline Of Western Civilization Part II...?

тоже посмотрел, решил найти заслухать... а он вот, под носом :dance:
:thanx:


Top
 Profile E-mail  
 
Display posts from previous:  Sort by  
Post new topic Reply to topic  [ 18 posts ] 

All times are UTC + 3 hours


Who is online

Users browsing this forum: No registered users and 1 guest


You cannot post new topics in this forum
You cannot reply to topics in this forum
You cannot edit your posts in this forum
You cannot delete your posts in this forum
You cannot post attachments in this forum

Search for:
Яндекс.Метрика
Powered by phpBB © 2000, 2002, 2005, 2007 phpBB Group