\m/ 80's metal \m/

Информационно-аналитический форум "80 см пыли" (In Search We Trust) "У нас никто никуда не спешит"
Железнодорожная биржа - RailAgent
It is currently 21 Nov 2017

All times are UTC + 3 hours

Spoiler
Chat - temporary registration for foreign users (please leave your application here)







Post new topic Reply to topic  [ 12 posts ] 
Author Message
 
PostPosted: 17 Feb 2010 
Работнечег
User avatar
Joined: 28 Aug 2007
Posts: 5000
Lоcаtion: г. Москва
Age: 28
Name: Дима
Image

Band: Omen
Album: Warning Of Danger
Year: 1996
Label: Metal Blade
Genre: Power Metal
Coutry: USA
Format: Flac + Log + Cue + Covers
Size: 282 Mb

Line-Up:
J.D. Kimball - Vocals
Kenny Powell - Guitar
Jody Henry - Bass
Steve Wittig - Drums


Tracklist:
1. Warning of Danger 04:25
2. March On 04:04
3. Ruby Eyes (of the Serpent) 03:49
4. Don't Fear the Night 05:04
5. V.B.P. 04:54
6. Premonition 01:47
7. Termination 03:33
8. Make Me Your King 03:50
9. Red Horizon 03:38
10. Hell's Gates 05:42
Total playing time 40:46

LOG
Exact Audio Copy V0.99 prebeta 5 from 4. May 2009

Отчёт EAC об извлечении, выполненном 10. февраля 2010, 17:55

Omen / Warning Of Danger

Дисковод: PIONEER DVD-RW DVR-116D Adapter: 0 ID: 0

Режим чтения : Достоверность
Использование точного потока : Да
Отключение кэша аудио : Да
Использование указателей C2 : Нет

Коррекция смещения при чтении : 96
Способность читать области Lead-in и Lead-out : Нет
Заполнение пропущенных сэмплов тишиной : Да
Удаление блоков с тишиной в начале и конце : Нет
При вычислениях CRC использовались нулевые сэмплы : Да
Интерфейс : Встроенный Win32-интерфейс для Win NT/2000

Выходной формат : Пользовательский кодировщик
Выбранный битрейт : 32 kBit/s
Качество : Высокий
Добавление ID3-тэга : Нет
Утилита сжатия : C:\Program Files\Exact Audio Copy\Flac\flac.exe
Дополнительные параметры : -6 -V %s


TOC извлечённого CD

Трек | Старт | Длительность | Начальный сектор | Конечный сектор
---------------------------------------------------------------------
1 | 0:00.00 | 4:25.22 | 0 | 19896
2 | 4:25.22 | 4:03.38 | 19897 | 38159
3 | 8:28.60 | 3:51.07 | 38160 | 55491
4 | 12:19.67 | 5:04.33 | 55492 | 78324
5 | 17:24.25 | 5:01.40 | 78325 | 100939
6 | 22:25.65 | 1:52.17 | 100940 | 109356
7 | 24:18.07 | 3:34.40 | 109357 | 125446
8 | 27:52.47 | 3:49.35 | 125447 | 142656
9 | 31:42.07 | 3:38.15 | 142657 | 159021
10 | 35:20.22 | 5:38.38 | 159022 | 184409


Характеристики диапазона извлечения и сообщения об ошибках

Выбранный диапазон

Имя файла D:\Музыка\Lossless\Omen - Warning Of Danger (1985) (Reissued In 1996)\Omen - Warning Of Danger.wav

Пиковый уровень 100.0 %
Качество диапазона 100.0 %
CRC копии 7FFAAB48
Копирование... OK

Ошибок не произошло


AccurateRip: сводка

Трек 1 точность не определена (достоверность 2) [2497D717], AccurateRip вернул [74372B5D]
Трек 2 точность не определена (достоверность 2) [BF5A115E], AccurateRip вернул [54325DCD]
Трек 3 точность не определена (достоверность 2) [F1B9CDF1], AccurateRip вернул [34AC8AF9]
Трек 4 точность не определена (достоверность 2) [F86A0064], AccurateRip вернул [7ECBDC78]
Трек 5 точность не определена (достоверность 2) [E6B5DBB8], AccurateRip вернул [D5B3A125]
Трек 6 точность не определена (достоверность 2) [A44771F8], AccurateRip вернул [A01B3F55]
Трек 7 точность не определена (достоверность 2) [28DBC36F], AccurateRip вернул [38B5C0A4]
Трек 8 точность не определена (достоверность 2) [2460478D], AccurateRip вернул [02C4B695]
Трек 9 точность не определена (достоверность 2) [B28E49B6], AccurateRip вернул [8AF4D4F1]
Трек 10 точность не определена (достоверность 2) [75461216], AccurateRip вернул [0D520699]

Ни один трек не прошёл проверки на точность
В вашей базе может быть иной вариант штамповки диска

Конец отчёта


CUE
REM GENRE "Power Metal"
REM DATE 1996
REM DISCID 6F099A0A
REM COMMENT "ExactAudioCopy v0.99pb5"
PERFORMER "Omen"
TITLE "Warning Of Danger"
FILE "Omen - Warning Of Danger.flac" WAVE
TRACK 01 AUDIO
TITLE "Warning Of Danger"
PERFORMER "Omen"
INDEX 01 00:00:00
TRACK 02 AUDIO
TITLE "March On"
PERFORMER "Omen"
INDEX 01 04:25:22
TRACK 03 AUDIO
TITLE "Ruby Eyes (Of The Serpent)"
PERFORMER "Omen"
INDEX 01 08:28:60
TRACK 04 AUDIO
TITLE "Don't Fear The Night"
PERFORMER "Omen"
INDEX 00 12:17:70
INDEX 01 12:19:67
TRACK 05 AUDIO
TITLE "V.B.P."
PERFORMER "Omen"
INDEX 00 17:23:10
INDEX 01 17:24:25
TRACK 06 AUDIO
TITLE "Premonition"
PERFORMER "Omen"
INDEX 00 22:24:57
INDEX 01 22:25:65
TRACK 07 AUDIO
TITLE "Termination"
PERFORMER "Omen"
INDEX 01 24:18:07
TRACK 08 AUDIO
TITLE "Make Me Your King"
PERFORMER "Omen"
INDEX 00 27:50:37
INDEX 01 27:52:47
TRACK 09 AUDIO
TITLE "Red Horizon"
PERFORMER "Omen"
INDEX 00 31:41:05
INDEX 01 31:42:07
TRACK 10 AUDIO
TITLE "Hell's Gate"
PERFORMER "Omen"
INDEX 00 35:19:05
INDEX 01 35:20:22


Spectrum
Image


Narod.ru

Лог проверьте на всякий случай.


Last edited by church on 24 Feb 2010, edited 1 time in total.

Top
 Profile E-mail  
 
 
PostPosted: 17 Feb 2010 
5-speed satisfactor
User avatar
Joined: 16 Feb 2009
Posts: 3318
Lоcаtion: New York, USA
Age: 39
Name: Leonid
:thanx:

Что это?
Ни один трек не прошёл проверки на точность
В вашей базе может быть иной вариант штамповки диска

_________________
Death rules! Metal to all who oppose!


Top
 Profile  
 
 
PostPosted: 17 Feb 2010 
Работнечег
User avatar
Joined: 28 Aug 2007
Posts: 5000
Lоcаtion: г. Москва
Age: 28
Name: Дима
Хз.Олежка spiralarch сказал, что не страшно :crazy:
Надеюсь, черканёт пару строчек.
Я так понял что в базе есть образец этого диска.И мой образец диска не совпал с тем что есть в базе.Возможно в базе есть оригинал, а у меня переиздание, поэтому и такая строчка.Правда я не знаю по каким параметрам он сравнивает то, что есть в базе и сам диск.


Top
 Profile E-mail  
 
 
PostPosted: 17 Feb 2010 
Прокъмитолист
User avatar
Joined: 12 Aug 2007
Posts: 6225
Lоcаtion: Санктъ-Петербуркъ
Age: 50
Name: Олекъ
Дим, проверь рип с помощью CUETools - сразу все будет понятно. я думаю, что рип просто сдвинут - возможно штамповка отличная от той, которая в базе есть :pardon:

_________________
прокъметол - это музыко, от которово есть прок (ы)


Top
 Profile  
 
 
PostPosted: 17 Feb 2010 
5-speed satisfactor
User avatar
Joined: 16 Feb 2009
Posts: 3318
Lоcаtion: New York, USA
Age: 39
Name: Leonid
А зачем пользоваться Accurate Rip? Надо просто смещение выставить 1 раз и все.

_________________
Death rules! Metal to all who oppose!


Top
 Profile  
 
 
PostPosted: 17 Feb 2010 
Прокъмитолист
User avatar
Joined: 12 Aug 2007
Posts: 6225
Lоcаtion: Санктъ-Петербуркъ
Age: 50
Name: Олекъ
metaleonid wrote:
Надо просто смещение выставить 1 раз и все

Лень, так в том ведь и дело, что смещение выставлено правильно. а рип все равно по базе не прошел :pardon:

_________________
прокъметол - это музыко, от которово есть прок (ы)


Top
 Profile  
 
 
PostPosted: 17 Feb 2010 
5-speed satisfactor
User avatar
Joined: 16 Feb 2009
Posts: 3318
Lоcаtion: New York, USA
Age: 39
Name: Leonid
Я у себя убрал галочку с AccurateRip.

Ну да фиг с ним. Всё равно грузить буду вечером. Еще раз :thanx: .

_________________
Death rules! Metal to all who oppose!


Top
 Profile  
 
 
PostPosted: 17 Feb 2010 
Работнечег
User avatar
Joined: 28 Aug 2007
Posts: 5000
Lоcаtion: г. Москва
Age: 28
Name: Дима
гым...я правильно настройки поставил?
в двух трэках какие-то ошибки он нашёл....
Image


Top
 Profile E-mail  
 
 
PostPosted: 17 Feb 2010 
5-speed satisfactor
User avatar
Joined: 16 Feb 2009
Posts: 3318
Lоcаtion: New York, USA
Age: 39
Name: Leonid
Это пусть Олег скажет. Я б просто выставил смещение и не парился с аккуратрипом.

_________________
Death rules! Metal to all who oppose!


Top
 Profile  
 
 
PostPosted: 17 Feb 2010 
Прокъмитолист
User avatar
Joined: 12 Aug 2007
Posts: 6225
Lоcаtion: Санктъ-Петербуркъ
Age: 50
Name: Олекъ
хм... partial match вообще-то означает, что трэк имеет отличия от базового. т.е. тут дело не только в смещении - возможно сграбилось с ошибкой :umnik:

варианты решения проблемы:
1. попробовать сграбить диск на другом приводе и сравнить результаты.
2. забить (на ММТ, например, результаты АР считают достоверными если в базе есть хотя бы 3 таких штамповки - а в нашем случае всего 2) :crazy:

_________________
прокъметол - это музыко, от которово есть прок (ы)


Top
 Profile  
 
 
PostPosted: 17 Feb 2010 
Работнечег
User avatar
Joined: 28 Aug 2007
Posts: 5000
Lоcаtion: г. Москва
Age: 28
Name: Дима
На другом приводе сграбить возможности нет....Скорее всего из-за того что диск не новый, я его за 250 рублей взял)) Небольшие царапинки кое-где есть, возможно поэтому и Partial Match в двух трэках.
P.S. Со смещением-то вроде как раз всё в порядке...


Top
 Profile E-mail  
 
 
PostPosted: 17 Feb 2010 
Прокъмитолист
User avatar
Joined: 12 Aug 2007
Posts: 6225
Lоcаtion: Санктъ-Петербуркъ
Age: 50
Name: Олекъ
church wrote:
На другом приводе сграбить возможности нет

значит забей :crazy: а смещение у тебя правильное стоит: +96 для твоего пионера :pardon:

_________________
прокъметол - это музыко, от которово есть прок (ы)


Top
 Profile  
 
Display posts from previous:  Sort by  
Post new topic Reply to topic  [ 12 posts ] 

All times are UTC + 3 hours


Who is online

Users browsing this forum: No registered users and 1 guest


You cannot post new topics in this forum
You cannot reply to topics in this forum
You cannot edit your posts in this forum
You cannot delete your posts in this forum
You cannot post attachments in this forum

Search for:
Яндекс.Метрика
Powered by phpBB © 2000, 2002, 2005, 2007 phpBB Group