\m/ 80's metal \m/

Информационно-аналитический форум "80 см пыли" (In Search We Trust) "У нас никто никуда не спешит"
Железнодорожная биржа - RailAgent
It is currently 21 Nov 2017

All times are UTC + 3 hours

Spoiler
Chat - temporary registration for foreign users (please leave your application here)







Post new topic Reply to topic  [ 63 posts ]  Go to page Previous  1, 2, 3, 4
Author Message
 
PostPosted: 07 Jan 2010 
5-speed satisfactor
User avatar
Joined: 16 Feb 2009
Posts: 3318
Lоcаtion: New York, USA
Age: 39
Name: Leonid
Всё внутри.

http://www.megaupload.com/?d=J1MWRFWD

Чтобы прожечь болванки, надо:

1. ФЛАКи перевести в ВАВы.
2. Для Battle Cry и The Curse прожигаем данными куями.
3. Для Warning Of Danger/Nightmares необходимо склеить ВАВы Warning Of Danger следуемый ВАВами Nightmares-ов в 1 ВАВ именуемый Range.wav. Порядок важен. Т.е. сначала Warning Of Danger потом Nightmares. Kyй прилагается и работает с единым ВАВом.




Omen - 1984 - Battle Cry [flacs]

Image Image Image

mirror: Narod l M-Cloud

log
Exact Audio Copy V0.99 prebeta 5 from 4. May 2009

EAC extraction logfile from 6. March 2010, 22:23

Omen / Battle Cry

Used drive : PLEXTOR DVDR PX-760A Adapter: 1 ID: 0

Read mode : Secure
Utilize accurate stream : Yes
Defeat audio cache : Yes
Make use of C2 pointers : Yes

Read offset correction : 30
Overread into Lead-In and Lead-Out : Yes
Fill up missing offset samples with silence : Yes
Delete leading and trailing silent blocks : No
Null samples used in CRC calculations : Yes
Used interface : Installed external ASPI interface

Used output format : Internal WAV Routines
Sample format : 44.100 Hz; 16 Bit; Stereo


TOC of the extracted CD

Track | Start | Length | Start sector | End sector
---------------------------------------------------------
1 | 0:00.00 | 3:29.33 | 0 | 15707
2 | 3:29.33 | 4:27.60 | 15708 | 35792
3 | 7:57.18 | 3:40.47 | 35793 | 52339
4 | 11:37.65 | 3:00.30 | 52340 | 65869
5 | 14:38.20 | 4:06.48 | 65870 | 84367
6 | 18:44.68 | 3:42.32 | 84368 | 101049
7 | 22:27.25 | 3:09.53 | 101050 | 115277
8 | 25:37.03 | 2:46.12 | 115278 | 127739
9 | 28:23.15 | 4:11.50 | 127740 | 146614
10 | 32:34.65 | 4:00.40 | 146615 | 164654


Range status and errors

Selected range

Filename N:\ToCD\Omen\Omen - Battle Cry.wav

Peak level 86.3 %
Range quality 100.0 %
Copy CRC F92C0AA4
Copy OK

No errors occurred

End of status report

cue
REM GENRE "Heavy Metal"
REM DATE 1984
REM DISCID 9108930A
REM COMMENT "ExactAudioCopy v0.99pb5"
PERFORMER "Omen"
TITLE "Battle Cry"
FILE "Omen - Battle Cry.wav" WAVE
TRACK 01 AUDIO
TITLE "Death Rider"
PERFORMER "Omen"
INDEX 01 00:00:00
TRACK 02 AUDIO
TITLE "The Axeman"
PERFORMER "Omen"
INDEX 00 03:27:73
INDEX 01 03:29:33
TRACK 03 AUDIO
TITLE "Last Rites"
PERFORMER "Omen"
INDEX 00 07:56:13
INDEX 01 07:57:18
TRACK 04 AUDIO
TITLE "Dragon's Breath"
PERFORMER "Omen"
INDEX 01 11:37:65
TRACK 05 AUDIO
TITLE "Be My Wench"
PERFORMER "Omen"
INDEX 00 14:37:20
INDEX 01 14:38:20
TRACK 06 AUDIO
TITLE "Battle Cry"
PERFORMER "Omen"
INDEX 00 18:43:65
INDEX 01 18:44:68
TRACK 07 AUDIO
TITLE "Die By The Blade"
PERFORMER "Omen"
INDEX 00 22:26:45
INDEX 01 22:27:25
TRACK 08 AUDIO
TITLE "Prince Of Darkness"
PERFORMER "Omen"
INDEX 00 25:36:00
INDEX 01 25:37:03
TRACK 09 AUDIO
TITLE "Bring Out The Beast"
PERFORMER "Omen"
INDEX 00 28:22:38
INDEX 01 28:23:15
TRACK 10 AUDIO
TITLE "In The Arena"
PERFORMER "Omen"
INDEX 00 32:32:65
INDEX 01 32:34:65

_________________
Death rules! Metal to all who oppose!


Top
 Profile  
 
 
PostPosted: 29 Nov 2014 
Хиппей (support team)
User avatar
Joined: 30 Jul 2007
Posts: 95757
Lоcаtion: Киев (Kyiv, UA)
Age: 44
Name: Andrey
Terrion wrote:
делал это для себя и просто поделился наблюдениями

А самим лосем поделиться? Правильным :lloo:

_________________


Top
 Profile E-mail  
 
 
PostPosted: 01 Dec 2014 
Metal Collector
User avatar
Joined: 16 Nov 2008
Posts: 1183
Lоcаtion: Химки
Age: 34
Name: Андрей
Андрюх, берёшь все файлы, сливаешь их в один чем угодно - хоть куетулсом, хоть фубаром. Подкладываешь оригинальный куе - релиз готов. Проверяешь тем же куетулсом по базе. Если смещение не канает, двигаешь. Там ничего сложного и эксклюзивного.


Top
 Profile E-mail  
 
 
PostPosted: 02 Dec 2014 
Хиппей (support team)
User avatar
Joined: 30 Jul 2007
Posts: 95757
Lоcаtion: Киев (Kyiv, UA)
Age: 44
Name: Andrey
Terrion wrote:
хоть куетулсом, хоть фубаром

....вот ими то как раз и не пользовался еще... :pardon:
Ок, позже всё равно придётся научиться все самому делать. Спасибо за советы и главное - внимательность и умеренную педантичность :thanx:

_________________


Top
 Profile E-mail  
 
Display posts from previous:  Sort by  
Post new topic Reply to topic  [ 63 posts ]  Go to page Previous  1, 2, 3, 4

All times are UTC + 3 hours


Who is online

Users browsing this forum: No registered users and 1 guest


You cannot post new topics in this forum
You cannot reply to topics in this forum
You cannot edit your posts in this forum
You cannot delete your posts in this forum
You cannot post attachments in this forum

Search for:
Яндекс.Метрика
Powered by phpBB © 2000, 2002, 2005, 2007 phpBB Group