\m/ 80's metal \m/

Информационно-аналитический форум "80 см пыли" (In Search We Trust) "У нас никто никуда не спешит"
Железнодорожная биржа - RailAgent
It is currently 21 Nov 2017

All times are UTC + 3 hours

Spoiler
Chat - temporary registration for foreign users (please leave your application here)







Post new topic Reply to topic  [ 2 posts ] 
Author Message
 
PostPosted: 19 Oct 2009 
Генеральный thrasher
User avatar
Joined: 03 Oct 2008
Posts: 3237
Lоcаtion: Ханты-Мансийский АО
Age: 42
Name: Сергей
Overkill - !!!Fuck You!!! And Then Some 1996 (Com.)

Image

Year: 1996
Style: Thrash Metal
Country: U.S.A.
Audio: flac+cue+log
Size: 382 Mb

Line-up:
Bobby "Blitz" Ellsworth - Vocals
D.D.Verni - Bass
Rat Skates - Drums
Bobby Gustafson - Guitar

Tracklist:
1. Fuck You (studio) 02:20
2. Rotten to the Core (live) 06:41
3. Hammerhead (live) 03:58
4. Use Your Head (live) 05:18
5. Electro-Violence (live) 03:51
6. Fuck You (live) 02:28
7. Hole in the Sky (live) (Black Sabbath cover) 03:43
8. E.vil N.ever D.ies (live) 06:11
9. Rotten to the Core 05:15
10. Fatal If Swallowed 06:21
11. The Answer 08:50
12. Overkill 03:42

Cue
REM GENRE "Heavy Metal"
REM DATE 1990
REM DISCID A80DBE0C
REM COMMENT "ExactAudioCopy v0.99pb4"
PERFORMER "Overkill"
TITLE "Fuck You And Then Some"
FILE "Overkill - Fuck You And Then Some.flac" WAVE
TRACK 01 AUDIO
TITLE "Fuck You (Studio Version)"
PERFORMER "Overkill"
INDEX 01 00:00:00
TRACK 02 AUDIO
TITLE "Rotten To The Core (Live at the Phantasy Theatra, Cleveland, OH, June 3, 1987)"
PERFORMER "Overkill"
INDEX 01 02:20:40
TRACK 03 AUDIO
TITLE "Hammerhead (Live at the Phantasy Theatra, Cleveland, OH, June 3, 1987)"
PERFORMER "Overkill"
INDEX 01 09:01:65
TRACK 04 AUDIO
TITLE "Use Your Head (Live at the Phantasy Theatra, Cleveland, OH, June 3, 1987)"
PERFORMER "Overkill"
INDEX 01 12:59:25
TRACK 05 AUDIO
TITLE "Electro-Violence (Live at the Phantasy Theatra, Cleveland, OH, June 3, 1987)"
PERFORMER "Overkill"
INDEX 01 18:17:72
TRACK 06 AUDIO
TITLE "Fuck You (Live at the Phantasy Theatra, Cleveland, OH, June 3, 1987)"
PERFORMER "Overkill"
INDEX 01 22:08:10
TRACK 07 AUDIO
TITLE "Hole In The Sky (Live at The Ritz, New York City, NY, January 27, 1990)"
PERFORMER "Overkill"
INDEX 01 24:36:10
TRACK 08 AUDIO
TITLE "E.vil N.ever D.ies (Live at The Ritz, New York City, NY, January 27, 1990)"
PERFORMER "Overkill"
INDEX 01 28:19:07
TRACK 09 AUDIO
TITLE "Rotten To The Core (from the Overkill EP)"
PERFORMER "Overkill"
INDEX 01 34:30:70
TRACK 10 AUDIO
TITLE "Fatal If Swallowed (from the Overkill EP)"
PERFORMER "Overkill"
INDEX 01 39:45:32
TRACK 11 AUDIO
TITLE "The Answer (from the Overkill EP)"
PERFORMER "Overkill"
INDEX 01 46:06:05
TRACK 12 AUDIO
TITLE "Overkill (from the Overkill EP)"
PERFORMER "Overkill"
INDEX 01 54:56:02


Log
Exact Audio Copy V0.99 prebeta 4 from 23. January 2008

Отчёт EAC об извлечении, выполненном 13. октября 2009, 12:52

Overkill / Fuck You And Then Some

Дисковод: ATAPI DVD A DH20A4P Adapter: 0 ID: 1

Режим чтения : Достоверность
Использование точного потока : Да
Отключение кэша аудио : Да
Использование указателей C2 : Нет

Коррекция смещения при чтении : 6
Способность читать области Lead-in и Lead-out : Нет
Заполнение пропущенных сэмплов тишиной : Да
Удаление блоков с тишиной в начале и конце : Нет
При вычислениях CRC использовались нулевые сэмплы : Нет
Интерфейс : Установленный внешний ASPI-интерфейс

Выходной формат : Пользовательский кодировщик
Выбранный битрейт : 768 kBit/s
Качество : Высокий
Добавление ID3-тэга : Нет
Утилита сжатия : C:\Program Files\Exact Audio Copy\FLAC\FLAC.EXE
Дополнительные параметры : -6 -V -T "ARTIST=%a" -T "TITLE=%t" -T "ALBUM=%g" -T "DATE=%y" -T "TRACKNUMBER=%n" -T "GENRE=%m" -T "COMMENT=%e" %s -o %d


TOC извлечённого CD

Трек | Старт | Длительность | Начальный сектор | Конечный сектор
---------------------------------------------------------------------
1 | 0:00.00 | 2:20.40 | 0 | 10539
2 | 2:20.40 | 6:41.25 | 10540 | 40639
3 | 9:01.65 | 3:57.35 | 40640 | 58449
4 | 12:59.25 | 5:18.47 | 58450 | 82346
5 | 18:17.72 | 3:50.13 | 82347 | 99609
6 | 22:08.10 | 2:28.00 | 99610 | 110709
7 | 24:36.10 | 3:42.72 | 110710 | 127431
8 | 28:19.07 | 6:11.63 | 127432 | 155319
9 | 34:30.70 | 5:14.37 | 155320 | 178906
10 | 39:45.32 | 6:20.48 | 178907 | 207454
11 | 46:06.05 | 8:49.72 | 207455 | 247201
12 | 54:56.02 | 3:42.00 | 247202 | 263851


Характеристики диапазона извлечения и сообщения об ошибках

Выбранный диапазон

Имя файла F:\Лоси\Overkill - Fuck You And Then Some.wav

Пиковый уровень 100.0 %
Качество диапазона 100.0 %
CRC копии E96BFAF4
Копирование... OK

Ошибок не произошло

Конец отчёта


Part 1
Part 2
Part 3
Part 4
Part 5


Top
 Profile  
 
 
PostPosted: 20 Oct 2009 
Работнечег
User avatar
Joined: 28 Aug 2007
Posts: 5000
Lоcаtion: г. Москва
Age: 28
Name: Дима
Пасибо Серёг! Правда я себе скорее всего с этого лося 320 сделаю...


Top
 Profile E-mail  
 
Display posts from previous:  Sort by  
Post new topic Reply to topic  [ 2 posts ] 

All times are UTC + 3 hours


Who is online

Users browsing this forum: No registered users and 1 guest


You cannot post new topics in this forum
You cannot reply to topics in this forum
You cannot edit your posts in this forum
You cannot delete your posts in this forum
You cannot post attachments in this forum

Search for:
Яндекс.Метрика
Powered by phpBB © 2000, 2002, 2005, 2007 phpBB Group