\m/ 80's metal \m/

Информационно-аналитический форум "80 см пыли" (In Search We Trust) "У нас никто никуда не спешит"
Me For You - http://me-4u.com
It is currently 25 Aug 2019

All times are UTC + 3 hours

Spoiler
Chat - temporary registration for foreign users (please leave your application here)







Post new topic Reply to topic  [ 6 posts ] 
Author Message
 
PostPosted: 31 Aug 2009 
Old Time Rock`n`Roll
User avatar
Joined: 23 Jun 2008
Posts: 3467
Lоcаtion: г.Ульяновск
Age: 41
Name: Константин
Overdrive – Swords And Axes (1984)

Image

Genre: Traditional Heavy Metal
Country: Sweden
Format: APE+cue+log+scans & mp3-320
Size: 427 Mb + 137 Mb

Tracklist:
1.Dream Away (04:27)
2.Black Revenge (05:46)
3.Fighting Man (05:43)
4.Burn In Hell (05:59)
5.Swords And Axes (05:32)
6.Living In Sin (05:32)
7.Mission Of Destruction (03:56)
8.Ode To Juliet (00:52)
9.Broken Hearted (06:29)
Bonus Tracks:
10. Lady Luck (4:23)
11. Girls Will Be Girls (3:47)
12. High Infidelity (3:43)
13. You (Give Me Hell) (2:37)
14. Reflexions (1:13)

TPT – 60:04

Line-Up:
Pelle Thuresson - vocals
Janne Stark - guitar
Kjell Jacobsson -guitar
Kenth Ericsson- bass
Kenta Svensson - drums

Spectres
Image

Лог
EAC extraction logfile from 24. December 2007, 9:53 for CD
Overdrive / Swords and Axes

Used drive : PLEXTOR CD-R PX-230A Adapter: 0 ID: 1
Read mode : Secure with NO C2, accurate stream, disable cache
Read offset correction : 738
Overread into Lead-In and Lead-Out : No

Used output format : C:\Programmi\Exact Audio Copy\MAC.EXE (Monkey's Audio Lossless Encoder)
High Lossless Compression

Other options :
Fill up missing offset samples with silence : Yes
Delete leading and trailing silent blocks : No
Native Win32 interface for Win NT & 2000


Range status and errors
Selected range
Filename C:\Documents and Settings\oem\Documenti\Musica\Overdrive - Swords and Axes\Overdrive - Swords and Axes.wav.wav

Peak level 99.0 %
Range quality 100.0 %
CRC F5ACB405
Copy OK

No errors occured

End of status report


Cue
REM DISCID C90E140E
REM COMMENT "ExactAudioCopy v0.95b4"
PERFORMER "Overdrive"
TITLE "Swords and Axes"
FILE "Overdrive - Swords and Axes.wav" WAVE
TRACK 01 AUDIO
TITLE "Dream Away"
PERFORMER "Overdrive"
INDEX 01 00:00:00
TRACK 02 AUDIO
TITLE "Black Revenge"
PERFORMER "Overdrive"
INDEX 00 04:26:52
INDEX 01 04:27:17
TRACK 03 AUDIO
TITLE "Fightin' Man"
PERFORMER "Overdrive"
INDEX 01 10:13:22
TRACK 04 AUDIO
TITLE "Burn In Hell"
PERFORMER "Overdrive"
INDEX 01 15:57:20
TRACK 05 AUDIO
TITLE "Swords and Axes"
PERFORMER "Overdrive"
INDEX 00 21:55:02
INDEX 01 21:56:20
TRACK 06 AUDIO
TITLE "Living In Sin"
PERFORMER "Overdrive"
INDEX 01 27:28:37
TRACK 07 AUDIO
TITLE "Mission of Destruction"
PERFORMER "Overdrive"
INDEX 00 32:59:67
INDEX 01 33:00:57
TRACK 08 AUDIO
TITLE "Ode To Juliet"
PERFORMER "Overdrive"
INDEX 01 36:57:32
TRACK 09 AUDIO
TITLE "Broken Hearted"
PERFORMER "Overdrive"
INDEX 01 37:49:50
TRACK 10 AUDIO
TITLE "Lady Luck"
PERFORMER "Overdrive"
INDEX 00 44:16:65
INDEX 01 44:19:37
TRACK 11 AUDIO
TITLE "Girls Wil Be Girls"
PERFORMER "Overdrive"
INDEX 00 48:42:07
INDEX 01 48:43:02
TRACK 12 AUDIO
TITLE "High Infidelity"
PERFORMER "Overdrive"
INDEX 00 52:29:12
INDEX 01 52:30:15
TRACK 13 AUDIO
TITLE "You (Give Me Hell!)"
PERFORMER "Overdrive"
INDEX 00 56:12:70
INDEX 01 56:13:67
TRACK 14 AUDIO
TITLE "Reflexions"
PERFORMER "Overdrive"
INDEX 01 58:51:25


APE
megaupload-APE

mp3-320
megaupload

MMT, автор релиза - rockberto


Last edited by oldrocker on 03 Feb 2011, edited 1 time in total.

Top
 Profile  
 
 
PostPosted: 31 Aug 2009 
Анатолий
User avatar
Joined: 18 Oct 2008
Posts: 3525
Lоcаtion: Армавир
Age: 42
Name: Анатолий
oldrocker

Константин, глазам своим не верю! У тебя же вроде проблемы с нетом были, а тут релиз! :shok:

Спасибо большое! :thanx:


Top
 Profile E-mail  
 
 
PostPosted: 31 Aug 2009 
Power Metal Maniac
User avatar
Joined: 09 Aug 2008
Posts: 6827
Lоcаtion: Москва
Age: 41
Name: Егор
:true: :thanx:

_________________
Long Live Metal!


Top
 Profile  
 
 
PostPosted: 31 Aug 2009 
Old Time Rock`n`Roll
User avatar
Joined: 23 Jun 2008
Posts: 3467
Lоcаtion: г.Ульяновск
Age: 41
Name: Константин
Privateer wrote:
а тут релиз! :shok:


работаем))


Top
 Profile  
 
 
PostPosted: 03 Feb 2011 
Old Time Rock`n`Roll
User avatar
Joined: 23 Jun 2008
Posts: 3467
Lоcаtion: г.Ульяновск
Age: 41
Name: Константин
Обновил ссылку


Top
 Profile  
 
 
PostPosted: 05 Feb 2011 
Генеральный thrasher
User avatar
Joined: 03 Oct 2008
Posts: 3722
Lоcаtion: Ханты-Мансийский АО
Age: 44
Name: Сергей
Спасибо,Костя!


Top
 Profile  
 
Display posts from previous:  Sort by  
Post new topic Reply to topic  [ 6 posts ] 

All times are UTC + 3 hours


Who is online

Users browsing this forum: No registered users and 1 guest


You cannot post new topics in this forum
You cannot reply to topics in this forum
You cannot edit your posts in this forum
You cannot delete your posts in this forum
You cannot post attachments in this forum

Search for:
Яндекс.Метрика
Powered by phpBB © 2000, 2002, 2005, 2007 phpBB Group