\m/ 80's metal \m/

Информационно-аналитический форум "80 см пыли" (In Search We Trust) "У нас никто никуда не спешит"
Железнодорожная биржа - RailAgent
It is currently 21 Nov 2017

All times are UTC + 3 hours

Spoiler
Chat - temporary registration for foreign users (please leave your application here)







Post new topic Reply to topic  [ 10 posts ] 
Author Message
 
PostPosted: 04 Jul 2009 
Я набрал 1000 сообщений!
User avatar
Joined: 25 Dec 2008
Posts: 1545
Age: 42
Name: Павел
Oliver Magnum-Oliver Magnum
Genre:prog/power metal
Year:1989
Country:USA
Size:270 Mb
Format:APE+cue+covers

Image

1. Sister Cybele
2. The Last Prophet
3. Old World Nites
4. Evilution
5. Trapped
6. Mendes Prey
7. Tongue Tied
8. Silent Scream (Prelude to Death)

OM- 1989 .rar

У кого еще нет-качать обязательно!


Top
 Profile  
 
 
PostPosted: 04 Jul 2009 
А может смените мне статус?..
Joined: 03 Jul 2009
Posts: 700
Lоcаtion: Serbia
Name: Laki
Большое спасибо :thanx:


Top
 Profile E-mail  
 
 
PostPosted: 30 Aug 2009 
Зарегился вот...
Joined: 29 Aug 2009
Posts: 3
Name: Peter
Thanks :thanx:


Top
 Profile E-mail  
 
 
PostPosted: 13 Jun 2013 
Рарник и трушник
User avatar
Joined: 25 Dec 2009
Posts: 7092
Lоcаtion: Москва
Age: 52
Name: Виталий
Отличный альбом! Спасибо!
Из-за своей черно-белой облоги наверное, но в своё время альбом прошел незамеченным. А щас - почти шедевр! :thanx:


Top
 Profile  
 
 
PostPosted: 29 Jul 2016 
Thrasher
User avatar
Joined: 07 Oct 2007
Posts: 2755
Lоcаtion: Russia, Moscow
Age: 33
Name: Drunk & Evil
А мона сканики? :oops:

_________________
ВОДКА, БАБЫ И БЛЮЗ / 40° till death... :bodun:
One time we saw some hookers, but when we got closer, we realised it was Mötley Crüe. ©


Top
 Profile  
 
 
PostPosted: 29 Jul 2016 
Хиппей (support team)
User avatar
Joined: 30 Jul 2007
Posts: 95757
Lоcаtion: Киев (Kyiv, UA)
Age: 44
Name: Andrey
:thanx:

mirror: iFolder l Narod l M-Cloud

log
Exact Audio Copy V0.99 prebeta 5 from 4. May 2009

EAC extraction logfile from 15. September 2009, 15:05

OLIVER MAGNUM / OLIVER MAGNUM

Used drive : ASUS DRW-2014L1 Adapter: 0 ID: 0

Read mode : Secure
Utilize accurate stream : Yes
Defeat audio cache : Yes
Make use of C2 pointers : No

Read offset correction : 6
Overread into Lead-In and Lead-Out : No
Fill up missing offset samples with silence : Yes
Delete leading and trailing silent blocks : No
Null samples used in CRC calculations : No
Used interface : Native Win32 interface for Win NT & 2000
Gap handling : Appended to previous track

Used output format : User Defined Encoder
Selected bitrate : 768 kBit/s
Quality : High
Add ID3 tag : No
Command line compressor : D:\Program Files\Exact Audio Copy\FLAC\FLAC.EXE
Additional command line options : -8 -V -T "ARTIST=%a" -T "TITLE=%t" -T "ALBUM=%g" -T "DATE=%y" -T "TRACKNUMBER=%n" -T "GENRE=%m" -T "COMMENT=EAC FLAC -8" %s


TOC of the extracted CD

Track | Start | Length | Start sector | End sector
---------------------------------------------------------
1 | 0:00.50 | 3:43.50 | 50 | 16824
2 | 3:44.25 | 4:16.50 | 16825 | 36074
3 | 8:01.00 | 5:20.30 | 36075 | 60104
4 | 13:21.30 | 6:02.02 | 60105 | 87256
5 | 19:23.32 | 5:55.60 | 87257 | 113941
6 | 25:19.17 | 4:26.58 | 113942 | 133949
7 | 29:46.00 | 2:16.47 | 133950 | 144196
8 | 32:02.47 | 7:35.73 | 144197 | 178394


Track 1

Filename H:\Мьюзика\Meta&Hardcore&Ghotic\Oliver Magnum\Sister Cybele.wav

Pre-gap length 0:00:02.50

Peak level 100.0 %
Track quality 100.0 %
Test CRC 258F386C
Copy CRC 258F386C
Copy OK

Track 2

Filename H:\Мьюзика\Meta&Hardcore&Ghotic\Oliver Magnum\The Last Prophet.wav

Peak level 91.5 %
Track quality 99.9 %
Test CRC F123F07C
Copy CRC F123F07C
Copy OK

Track 3

Filename H:\Мьюзика\Meta&Hardcore&Ghotic\Oliver Magnum\Old World Nites.wav

Peak level 90.2 %
Track quality 100.0 %
Test CRC AB5900FF
Copy CRC AB5900FF
Copy OK

Track 4

Filename H:\Мьюзика\Meta&Hardcore&Ghotic\Oliver Magnum\Evilution.wav

Peak level 100.0 %
Track quality 100.0 %
Test CRC 92C9E5A8
Copy CRC 92C9E5A8
Copy OK

Track 5

Filename H:\Мьюзика\Meta&Hardcore&Ghotic\Oliver Magnum\Trapped.wav

Peak level 100.0 %
Track quality 100.0 %
Test CRC D9BB49D7
Copy CRC D9BB49D7
Copy OK

Track 6

Filename H:\Мьюзика\Meta&Hardcore&Ghotic\Oliver Magnum\Mendes Prey.wav

Peak level 90.0 %
Track quality 100.0 %
Test CRC A667B9A4
Copy CRC A667B9A4
Copy OK

Track 7

Filename H:\Мьюзика\Meta&Hardcore&Ghotic\Oliver Magnum\Tongue Tied.wav

Peak level 99.9 %
Track quality 100.0 %
Test CRC C3D4AE46
Copy CRC C3D4AE46
Copy OK

Track 8

Filename H:\Мьюзика\Meta&Hardcore&Ghotic\Oliver Magnum\Silent Scream (Prelude To Death).wav

Peak level 94.2 %
Track quality 100.0 %
Test CRC D9A76012
Copy CRC D9A76012
Copy OK

No errors occurred

End of status report

cue
REM GENRE Metal
REM DATE 1989
REM DISCID 64094A08
REM COMMENT "ExactAudioCopy v0.99pb5"
PERFORMER "OLIVER MAGNUM"
TITLE "OLIVER MAGNUM"
FILE "Sister Cybele.flac" WAVE
TRACK 01 AUDIO
TITLE "Sister Cybele"
PERFORMER "OLIVER MAGNUM"
PREGAP 00:00:50
INDEX 01 00:00:00
FILE "The Last Prophet.flac" WAVE
TRACK 02 AUDIO
TITLE "The Last Prophet"
PERFORMER "OLIVER MAGNUM"
INDEX 01 00:00:00
FILE "Old World Nites.flac" WAVE
TRACK 03 AUDIO
TITLE "Old World Nites"
PERFORMER "OLIVER MAGNUM"
INDEX 01 00:00:00
FILE "Evilution.flac" WAVE
TRACK 04 AUDIO
TITLE "Evilution"
PERFORMER "OLIVER MAGNUM"
INDEX 01 00:00:00
FILE "Trapped.flac" WAVE
TRACK 05 AUDIO
TITLE "Trapped"
PERFORMER "OLIVER MAGNUM"
INDEX 01 00:00:00
FILE "Mendes Prey.flac" WAVE
TRACK 06 AUDIO
TITLE "Mendes Prey"
PERFORMER "OLIVER MAGNUM"
INDEX 01 00:00:00
FILE "Tongue Tied.flac" WAVE
TRACK 07 AUDIO
TITLE "Tongue Tied"
PERFORMER "OLIVER MAGNUM"
INDEX 01 00:00:00
FILE "Silent Scream (Prelude To Death).flac" WAVE
TRACK 08 AUDIO
TITLE "Silent Scream (Prelude To Death)"
PERFORMER "OLIVER MAGNUM"
INDEX 01 00:00:00

_________________


Top
 Profile E-mail  
 
 
PostPosted: 29 Jul 2016 
Хиппей (support team)
User avatar
Joined: 30 Jul 2007
Posts: 95757
Lоcаtion: Киев (Kyiv, UA)
Age: 44
Name: Andrey
Только подобрался удачно к прослушиванию альбома.
Сразу вспомнилась группа... Savatage :meloman:

_________________


Top
 Profile E-mail  
 
 
PostPosted: 29 Jul 2016 
Хиппей (support team)
User avatar
Joined: 30 Jul 2007
Posts: 95757
Lоcаtion: Киев (Kyiv, UA)
Age: 44
Name: Andrey
В общем, альбом не порвал, но впечатление очень приятное и бодрое оставил точно :lob: :lob: :lob:
Прога здесь, конечно, нет никакого.
Типичный техничный US Power Heavy в духе вторых альбомов Metal Church & Savatage. С вокалистом даже, похожим по манере пения, но не тянет так сильно верха, жаль.
Пахнет ли здесь группой Queensryche? Ой, ну очень издалека.

Альбом забираю в личный топ 80-х :kro:

7+/10

_________________


Top
 Profile E-mail  
 
 
PostPosted: 30 Jul 2016 
Хиппей (support team)
User avatar
Joined: 30 Jul 2007
Posts: 95757
Lоcаtion: Киев (Kyiv, UA)
Age: 44
Name: Andrey
Эх, хотел всё же изменить оценку на более низкую, но послушал два раза внимательно в наушниках и влюбился в некоторые песни с альбома :meloman:
Вокал хорош, хорош. Ну не тянет верха, ага, но поёт втемно очень :dance:

_________________


Top
 Profile E-mail  
 
 
PostPosted: 30 Jul 2016 
Thrasher
User avatar
Joined: 07 Oct 2007
Posts: 2755
Lоcаtion: Russia, Moscow
Age: 33
Name: Drunk & Evil
Спасибо, альбом порадовал, хоть и типичный во многих моментах, но всё сыграно-спето добротно :true: :true: :true:

_________________
ВОДКА, БАБЫ И БЛЮЗ / 40° till death... :bodun:
One time we saw some hookers, but when we got closer, we realised it was Mötley Crüe. ©


Top
 Profile  
 
Display posts from previous:  Sort by  
Post new topic Reply to topic  [ 10 posts ] 

All times are UTC + 3 hours


Who is online

Users browsing this forum: No registered users and 1 guest


You cannot post new topics in this forum
You cannot reply to topics in this forum
You cannot edit your posts in this forum
You cannot delete your posts in this forum
You cannot post attachments in this forum

Search for:
Яндекс.Метрика
Powered by phpBB © 2000, 2002, 2005, 2007 phpBB Group