\m/ 80's metal \m/

Информационно-аналитический форум "80 см пыли" (In Search We Trust) "У нас никто никуда не спешит"
Me For You - http://me-4u.com
It is currently 21 Jul 2019

All times are UTC + 3 hours

Spoiler
Chat - temporary registration for foreign users (please leave your application here)







Post new topic Reply to topic  [ 4 posts ] 
Author Message
 
PostPosted: 21 Dec 2016 
Генеральный thrasher
User avatar
Joined: 03 Oct 2008
Posts: 3714
Lоcаtion: Ханты-Мансийский АО
Age: 44
Name: Сергей
Image

Year:2015
Style:Power/Thrash Metal
Country:U.S.A.
Archive:Flac+Cue+Log+Scans
Source:my CD
Size:563Mb
Label:Divebomb Records

Tracklist:
01. Apocalyptic Prophecy 04:45
02. Statistical Bridge 04:49
03. Citadel's On Fire 05:26
04. Insomnia 04:35
05. D.E.A. 02:36
Bonus Tracks:
06. Stop The Madness 04:40
07. This World 05:06
08. I Am The One 03:28
09. Nothing To Do 04:04
10. Last Laugh 03:11
11. And It Rose... 05:32
12. Gunther 04:03
13. The Answer 04:44
14. The Mourning After 04:09
15. This World (Alternate Mix) 05:06
16. The Answer (Alternate Mix) 04:48

"Cue"
REM GENRE "Power/Thrash Metal"
REM DATE 2015
REM DISCID E710A710
REM COMMENT "ExactAudioCopy v1.1"
PERFORMER "Obscene Jester "
TITLE "Citadel's On Fire"
FILE "Obscene Jester - Citadel's On Fire.flac" WAVE
TRACK 01 AUDIO
TITLE "Apocalyptic Prophecy"
PERFORMER "Obscene Jester "
FLAGS DCP
INDEX 01 00:00:00
TRACK 02 AUDIO
TITLE "Statistical Bridge"
PERFORMER "Obscene Jester "
FLAGS DCP
INDEX 01 04:45:04
TRACK 03 AUDIO
TITLE "Citadel's On Fire"
PERFORMER "Obscene Jester "
FLAGS DCP
INDEX 01 09:34:26
TRACK 04 AUDIO
TITLE "Insomnia"
PERFORMER "Obscene Jester "
FLAGS DCP
INDEX 01 14:59:69
TRACK 05 AUDIO
TITLE "D.E.A."
PERFORMER "Obscene Jester "
FLAGS DCP
INDEX 01 19:34:44
TRACK 06 AUDIO
TITLE "Stop the Madness"
PERFORMER "Obscene Jester "
FLAGS DCP
INDEX 01 22:11:06
TRACK 07 AUDIO
TITLE "This World"
PERFORMER "Obscene Jester "
FLAGS DCP
INDEX 01 26:51:07
TRACK 08 AUDIO
TITLE "I Am the One"
PERFORMER "Obscene Jester "
FLAGS DCP
INDEX 01 31:56:45
TRACK 09 AUDIO
TITLE "Nothing to Do"
PERFORMER "Obscene Jester "
FLAGS DCP
INDEX 01 35:25:04
TRACK 10 AUDIO
TITLE "Last Laugh"
PERFORMER "Obscene Jester "
FLAGS DCP
INDEX 01 39:29:20
TRACK 11 AUDIO
TITLE "And It Rose..."
PERFORMER "Obscene Jester "
FLAGS DCP
INDEX 01 42:40:41
TRACK 12 AUDIO
TITLE "Gunther"
PERFORMER "Obscene Jester "
FLAGS DCP
INDEX 01 48:12:18
TRACK 13 AUDIO
TITLE "The Answer"
PERFORMER "Obscene Jester "
FLAGS DCP
INDEX 01 52:15:31
TRACK 14 AUDIO
TITLE "The Mourning After"
PERFORMER "Obscene Jester "
FLAGS DCP
INDEX 01 56:59:18
TRACK 15 AUDIO
TITLE "This World (Alternate Mix)"
PERFORMER "Obscene Jester "
FLAGS DCP
INDEX 01 61:08:51
TRACK 16 AUDIO
TITLE "The Answer (Alternate Mix)"
PERFORMER "Obscene Jester "
FLAGS DCP
INDEX 01 66:15:09

"Log"
Exact Audio Copy V1.1 from 23. June 2015

Отчёт EAC об извлечении, выполненном 15. августа 2016, 11:50

Obscene Jester / Citadel's On Fire

Дисковод: HL-DT-STDVDRAM GTA0N Adapter: 1 ID: 0

Режим чтения : Достоверность
Использование точного потока : Да
Отключение кэша аудио : Да
Использование указателей C2 : Нет

Коррекция смещения при чтении : 102
Способность читать области Lead-in и Lead-out : Нет
Заполнение пропущенных сэмплов тишиной : Да
Удаление блоков с тишиной в начале и конце : Нет
При вычислениях CRC использовались нулевые сэмплы : Да
Интерфейс : Встроенный Win32-интерфейс для Win NT/2000

Выходной формат : Пользовательский кодировщик
Выбранный битрейт : 768 kBit/s
Качество : Высокий
Добавление ID3-тега : Нет
Утилита сжатия : C:\Program Files (x86)\Exact Audio Copy\FLAC\FLAC.EXE
Дополнительные параметры : -6 -V -T "ARTIST=%artist%" -T "TITLE=%title%" -T "ALBUM=%albumtitle%" -T "DATE=%year%" -T "TRACKNUMBER=%tracknr%" -T "GENRE=%genre%" -T "COMMENT=%comment%" -T "BAND=%albuminterpret%" -T "ALBUMARTIST=%albuminterpret%" -T "COMPOSER=%composer%" %haslyrics%--tag-from-file=LYRICS="%lyricsfile%"%haslyrics% -T "DISCNUMBER=%cdnumber%" -T "TOTALDISCS=%totalcds%" -T "TOTALTRACKS=%numtracks%" %hascover%--picture="%coverfile%"%hascover% %source% -o %dest%


TOC извлечённого CD

Трек | Старт | Длительность | Начальный сектор | Конечный сектор
---------------------------------------------------------------------
1 | 0:00.00 | 4:45.04 | 0 | 21378
2 | 4:45.04 | 4:49.22 | 21379 | 43075
3 | 9:34.26 | 5:25.43 | 43076 | 67493
4 | 14:59.69 | 4:34.50 | 67494 | 88093
5 | 19:34.44 | 2:36.37 | 88094 | 99830
6 | 22:11.06 | 4:40.01 | 99831 | 120831
7 | 26:51.07 | 5:05.38 | 120832 | 143744
8 | 31:56.45 | 3:28.34 | 143745 | 159378
9 | 35:25.04 | 4:04.16 | 159379 | 177694
10 | 39:29.20 | 3:11.21 | 177695 | 192040
11 | 42:40.41 | 5:31.52 | 192041 | 216917
12 | 48:12.18 | 4:03.13 | 216918 | 235155
13 | 52:15.31 | 4:43.62 | 235156 | 256442
14 | 56:59.18 | 4:09.33 | 256443 | 275150
15 | 61:08.51 | 5:06.33 | 275151 | 298133
16 | 66:15.09 | 4:48.16 | 298134 | 319749


Характеристики диапазона извлечения и сообщения об ошибках

Выбранный диапазон

Имя файла C:\Users\магазин\Music\Obscene Jester - Citadel's On Fire.wav

Пиковый уровень 100.0 %
Скорость извлечения 2.3 X
Качество диапазона 100.0 %
CRC копии D0D702D1
Копирование... OK

Ошибок не произошло


AccurateRip: сводка

Трек 1 отсутствует в базе данных
Трек 2 отсутствует в базе данных
Трек 3 отсутствует в базе данных
Трек 4 отсутствует в базе данных
Трек 5 отсутствует в базе данных
Трек 6 отсутствует в базе данных
Трек 7 отсутствует в базе данных
Трек 8 отсутствует в базе данных
Трек 9 отсутствует в базе данных
Трек 10 отсутствует в базе данных
Трек 11 отсутствует в базе данных
Трек 12 отсутствует в базе данных
Трек 13 отсутствует в базе данных
Трек 14 отсутствует в базе данных
Трек 15 отсутствует в базе данных
Трек 16 отсутствует в базе данных

Ни одного трека нет в базе AccurateRip

Конец отчёта

---- CUETools DB Plugin V2.1.6

[CTDB TOCID: 73tr3liqMhPcddJdWdBbZda5PzM-] found
Submit result: 73tr3liqMhPcddJdWdBbZda5PzM- has been confirmed
Track | CTDB Status
1 | (1/1) Accurately ripped
2 | (1/1) Accurately ripped
3 | (1/1) Accurately ripped
4 | (1/1) Accurately ripped
5 | (1/1) Accurately ripped
6 | (1/1) Accurately ripped
7 | (1/1) Accurately ripped
8 | (1/1) Accurately ripped
9 | (1/1) Accurately ripped
10 | (1/1) Accurately ripped
11 | (1/1) Accurately ripped
12 | (1/1) Accurately ripped
13 | (1/1) Accurately ripped
14 | (1/1) Accurately ripped
15 | (1/1) Accurately ripped
16 | (1/1) Accurately ripped


Citadel's On Fire


Top
 Profile  
 
 
PostPosted: 21 Dec 2016 
Генеральный thrasher
User avatar
Joined: 03 Oct 2008
Posts: 3714
Lоcаtion: Ханты-Мансийский АО
Age: 44
Name: Сергей
Здесь шёл разговор об данной команде - viewtopic.php?f=120&t=8465

Вроде многим нравилась.Спрашивал там,нужен кому лось или нет...Ответа не последовало.Но на всякий случай запостил сохатого. :lloo:


Top
 Profile  
 
 
PostPosted: 21 Dec 2016 
Прокъмитолист
User avatar
Joined: 12 Aug 2007
Posts: 6579
Lоcаtion: Санктъ-Петербуркъ
Age: 51
Name: Олекъ
спасибо, Серёг :thanx:

_________________
прокъметол - это музыко, от которово есть прок (ы)


Top
 Profile  
 
 
PostPosted: 24 Dec 2016 
спирт 100%
User avatar
Joined: 22 Sep 2008
Posts: 4445
Age: 48
Name: Саня
Спасибо! :thanx:


Top
 Profile  
 
Display posts from previous:  Sort by  
Post new topic Reply to topic  [ 4 posts ] 

All times are UTC + 3 hours


Who is online

Users browsing this forum: No registered users and 1 guest


You cannot post new topics in this forum
You cannot reply to topics in this forum
You cannot edit your posts in this forum
You cannot delete your posts in this forum
You cannot post attachments in this forum

Search for:
Яндекс.Метрика
Powered by phpBB © 2000, 2002, 2005, 2007 phpBB Group