\m/ 80's metal \m/

Информационно-аналитический форум "80 см пыли" (In Search We Trust) "У нас никто никуда не спешит"
Me For You - http://me-4u.com
It is currently 24 Aug 2019

All times are UTC + 3 hours

Spoiler
Chat - temporary registration for foreign users (please leave your application here)







Post new topic Reply to topic  [ 29 posts ]  Go to page Previous  1, 2
Author Message
 
PostPosted: 22 Jan 2016 
5-speed satisfactor
User avatar
Joined: 16 Feb 2009
Posts: 3755
Lоcаtion: New York, USA
Age: 41
Name: Leonid
:thanx:

Marshall Law, Metal Blade 1998

Rusfolder

:thanx:

Image Image

mirror: iFolder l Narod l M-Cloud

Image Image

log
EAC extrae el archivo del registro desde 21. Enero 2004, 19:40 para el CD
Obsession / Marshall Law

Unidad Usada: SONY DVD-ROM DDU1612 Adapter: 1 ID: 1
Modo de Lectura: Seguro con C2, sin Flujo Preciso, desactivando Cache
Correcciуn Combinada de Lectura/Escritura del Balance: 0
Leer por encima de la sesiуn inicial y final del CD : No

Usar Formato de Salida: C:\Documents and Settings\keith\Mis documentos\Mis eBooks\MAC.exe (Compresor Monkey's Audio (menor pйrdida))
High Lossless Compression
Opciones adicionales de la Linea de comandos: %l--alt-preset 128%l%h--alt-preset standard%h %s %d

Otras Opciones:
Rellenar muestras pйrdidas del balance con silencios : Si
Eliminar bloques de silencios al principio y final : No
Interfaz Win32 para Windows (NT/2000/XP)


Lнmite erroneo
Seleccionar Lнmite
Nombre de archivo C:\Documents and Settings\keith\Mis documentos\EAC\obsession\CDImage.wav

Nivel de pico 99.2 %
Calidad de lнmite 100.0 %
CRC 5EBAEF28
Copia realizada

No existen errores

Fin de la informaciуn de estado

cue
PERFORMER "Obsession"
TITLE "Marshall Law"
FILE "CDImage.ape" WAVE
TRACK 01 AUDIO
TITLE "Only The Strong Will Survive"
PERFORMER "Obsession"
INDEX 01 00:00:00
TRACK 02 AUDIO
TITLE "Hatred Unto Death"
PERFORMER "Obsession"
INDEX 00 03:23:19
INDEX 01 03:23:25
TRACK 03 AUDIO
TITLE "Execution"
PERFORMER "Obsession"
INDEX 01 10:21:20
TRACK 04 AUDIO
TITLE "Marshall Law"
PERFORMER "Obsession"
INDEX 01 15:14:20


A нормальных ковриков с разворотом ни у кого не имеется? Я не понимаю, неужели трудно в сканнер вложить разворотный коврик и сканировать 1 раз? И внутренность неплохо было б поиметь.

_________________
Death rules! Metal to all who oppose!


Top
 Profile  
 
 
PostPosted: 22 Jan 2016 
Я набрал 1000 сообщений!
Joined: 21 Nov 2009
Posts: 1414
Lоcаtion: praga
Age: 49
Name: Сергей
:vic:


Top
 Profile E-mail  
 
 
PostPosted: 23 Jan 2016 
Хиппей (support team)
User avatar
Joined: 30 Jul 2007
Posts: 114092
Lоcаtion: Киев (Kyiv, UA)
Age: 46
Name: Andrey
metaleonid wrote:
A нормальных ковриков с разворотом ни у кого не имеется? Я не понимаю, неужели трудно в сканнер вложить разворотный коврик и сканировать 1 раз? И внутренность неплохо было б поиметь.

Трудно, сканера то нету :kro:

_________________


Top
 Profile E-mail  
 
 
PostPosted: 23 Jan 2016 
5-speed satisfactor
User avatar
Joined: 16 Feb 2009
Posts: 3755
Lоcаtion: New York, USA
Age: 41
Name: Leonid
metaleonid wrote:
A нормальных ковриков с разворотом ни у кого не имеется? Я не понимаю, неужели трудно в сканнер вложить разворотный коврик и сканировать 1 раз? И внутренность неплохо было б поиметь.

Трудно, сканера то нету :kro:


У тебя есть диск?

_________________
Death rules! Metal to all who oppose!


Top
 Profile  
 
 
PostPosted: 29 Jan 2016 
Хиппей (support team)
User avatar
Joined: 30 Jul 2007
Posts: 114092
Lоcаtion: Киев (Kyiv, UA)
Age: 46
Name: Andrey
Не-не, ну откуда? У меня то и сканера нету.

_________________


Top
 Profile E-mail  
 
 
PostPosted: 30 Jan 2016 
Анатолий
User avatar
Joined: 18 Oct 2008
Posts: 3525
Lоcаtion: Армавир
Age: 42
Name: Анатолий
Похоже миник с винила сделан...


Top
 Profile E-mail  
 
 
PostPosted: 30 Jan 2016 
Хиппей (support team)
User avatar
Joined: 30 Jul 2007
Posts: 114092
Lоcаtion: Киев (Kyiv, UA)
Age: 46
Name: Andrey
Ну так 83-й год же ж.
Обычно в этот год мастер-ленты и пропадали :kro:

_________________


Top
 Profile E-mail  
 
 
PostPosted: 31 Jan 2016 
Я набрал 1000 сообщений!
Joined: 21 Nov 2009
Posts: 1414
Lоcаtion: praga
Age: 49
Name: Сергей
Image


Image


Image


Image


Top
 Profile E-mail  
 
 
PostPosted: 15 Oct 2017 
Доктор энтомологии
User avatar
Joined: 22 Jan 2009
Posts: 9851
Lоcаtion: Даугавпилс
Age: 44
Name: Алексей
Неплохой Iron Maiden, только не такой талантливый. Спасает шарм 80-х и некоторые моменты и темы. Наслаждение в любом случае получил-потребил :drynk:


Top
 Profile  
 
Display posts from previous:  Sort by  
Post new topic Reply to topic  [ 29 posts ]  Go to page Previous  1, 2

All times are UTC + 3 hours


Who is online

Users browsing this forum: No registered users and 1 guest


You cannot post new topics in this forum
You cannot reply to topics in this forum
You cannot edit your posts in this forum
You cannot delete your posts in this forum
You cannot post attachments in this forum

Search for:
Яндекс.Метрика
Powered by phpBB © 2000, 2002, 2005, 2007 phpBB Group