\m/ 80's metal \m/

Информационно-аналитический форум "80 см пыли" (In Search We Trust) "У нас никто никуда не спешит"
Me For You - http://me-4u.com
It is currently 21 Sep 2020

All times are UTC + 3 hours

Spoiler
Chat - temporary registration for foreign users (please leave your application here)







Post new topic Reply to topic  [ 125 posts ]  Go to page Previous  1, 2, 3, 4, 5, 6, 7  Next
Author Message
 
PostPosted: 11 Feb 2009 
консэрваторъ
User avatar
Joined: 11 Aug 2007
Posts: 17645
Lоcаtion: Псков
Age: 46
Name: Сергей
Собираем полную дискографию... :lob:

> Осталось найти: | Still looking:
Outrage - Volume One 2001 (EP)
Outrage - Play Loud 2002 (EP)
Outrage - Live! Rise and Shine 2010 (Live)
Outrage - Axe Crazy 2019 (EP 7")

_________________
THRASH 'EM ALL


Top
 Profile E-mail  
 
 
PostPosted: 13 Mar 2015 
Доктор энтомологии
User avatar
Joined: 22 Jan 2009
Posts: 10284
Lоcаtion: Даугавпилс
Age: 45
Name: Алексей
:lob: :dance: не забыть скачать, а заодно и в памяти освежить.
Сергей, тебе лично какой их альбом более по душе?


Top
 Profile  
 
 
PostPosted: 13 Mar 2015 
\m/ 80 см сала \m/
User avatar
Joined: 12 Mar 2012
Posts: 2599
Age: 27
Name: Nick
:thanx:
Ты прямо мысли читаешь :shok: - отправил ссылку на тему знакомому меломану, который не так давно обращался с просьбой помочь найти некоторые альбомы :true:

_________________
1990 AUROPHON BRAINSTORM (Germany) - lossless
1994 MAUSOLEUM CLASSIX (Belgium-Germany) - lossless
1998 VA - GRIM HARVEST - Complete Metal Massacre Volumes I-XII


Top
 Profile  
 
 
PostPosted: 13 Mar 2015 
Генеральный thrasher
User avatar
Joined: 03 Oct 2008
Posts: 3751
Lоcаtion: Ханты-Мансийский АО
Age: 45
Name: Сергей
:lob: :dance: не забыть скачать, а заодно и в памяти освежить.
Сергей, тебе лично какой их альбом более по душе?


Мне первые три больше всего по душе.


Top
 Profile  
 
 
PostPosted: 13 Mar 2015 
Доктор энтомологии
User avatar
Joined: 22 Jan 2009
Posts: 10284
Lоcаtion: Даугавпилс
Age: 45
Name: Алексей
:thanx:


Top
 Profile  
 
 
PostPosted: 13 Mar 2015 
Генеральный thrasher
User avatar
Joined: 03 Oct 2008
Posts: 3751
Lоcаtion: Ханты-Мансийский АО
Age: 45
Name: Сергей
Image

Year:2004
Style:Speed/Thrash Metal
Country:Japan
Audio:Flac+Cue+Log+Scans
Size:364Mb
Source:my CD
Label:Victor Entertainment
Catalog ID:VICP-62665

Tracklist:
01. Bleed Out 04:42
02. Deadbeat 02:53
03. Outta Change 02:28
04. China Doll 05:58
05. Cat & Nines 03:37
06. Do it Again 02:33
07. Annihilist Existentialist 04:51
08. Mental Asylum 02:32
09. I Can See For Miles 04:52
10. Big Mouth 04:40
11. Hit And Run 04:11
12. La Luna del Desierto 06:00
"Cue"
REM GENRE "Thrash Metal"
REM DATE 2004
REM DISCID B212830D
REM COMMENT "ExactAudioCopy v0.99pb5"
PERFORMER "OUTRAGE"
TITLE "Cause For Pause"
FILE "OUTRAGE - Cause For Pause.flac" WAVE
TRACK 01 AUDIO
TITLE "Bleed Out"
PERFORMER "OUTRAGE"
INDEX 01 00:00:00
TRACK 02 AUDIO
TITLE "Deadbeat"
PERFORMER "OUTRAGE"
INDEX 01 04:42:25
TRACK 03 AUDIO
TITLE "Outta Change"
PERFORMER "OUTRAGE"
INDEX 01 07:36:00
TRACK 04 AUDIO
TITLE "China Doll"
PERFORMER "OUTRAGE"
INDEX 00 10:04:42
INDEX 01 10:07:27
TRACK 05 AUDIO
TITLE "Cat & Nines"
PERFORMER "OUTRAGE"
INDEX 00 16:05:35
INDEX 01 16:05:52
TRACK 06 AUDIO
TITLE "Do It Again"
PERFORMER "OUTRAGE"
INDEX 00 19:42:55
INDEX 01 19:42:57
TRACK 07 AUDIO
TITLE "Annihilist Existentialist"
PERFORMER "OUTRAGE"
INDEX 00 22:16:52
INDEX 01 22:18:70
TRACK 08 AUDIO
TITLE "Mental Asylum"
PERFORMER "OUTRAGE"
INDEX 00 27:10:02
INDEX 01 27:10:32
TRACK 09 AUDIO
TITLE "I Can See For Miles"
PERFORMER "OUTRAGE"
INDEX 01 29:42:65
TRACK 10 AUDIO
TITLE "Big Mouth"
PERFORMER "OUTRAGE"
INDEX 00 34:35:27
INDEX 01 34:35:32
TRACK 11 AUDIO
TITLE "Hit And Run"
PERFORMER "OUTRAGE"
INDEX 00 39:15:52
INDEX 01 39:17:70
TRACK 12 AUDIO
TITLE "La Luna Del Desierto"
PERFORMER "OUTRAGE"
INDEX 01 43:29:22

"Log"
Exact Audio Copy V0.99 prebeta 5 from 4. May 2009

Отчёт EAC об извлечении, выполненном 16. января 2014, 21:02

OUTRAGE / Cause For Pause

Дисковод: MATSHITADVD-RAM UJ8A0AS Adapter: 0 ID: 1

Режим чтения : Достоверность
Использование точного потока : Да
Отключение кэша аудио : Да
Использование указателей C2 : Нет

Коррекция смещения при чтении : 102
Способность читать области Lead-in и Lead-out : Нет
Заполнение пропущенных сэмплов тишиной : Да
Удаление блоков с тишиной в начале и конце : Нет
При вычислениях CRC использовались нулевые сэмплы : Да
Интерфейс : Встроенный Win32-интерфейс для Win NT/2000

Выходной формат : Пользовательский кодировщик
Выбранный битрейт : 1024 kBit/s
Качество : Высокий
Добавление ID3-тэга : Нет
Утилита сжатия : C:\Program Files\Exact Audio Copy\FLAC\FLAC.EXE
Дополнительные параметры : -6 -V -T "ARTIST=%a" -T "TITLE=%t" -T "ALBUM=%g" -T "DATE=%y" -T "TRACKNUMBER=%n" -T "GENRE=%m" -T "COMMENT=%e" %s -o %d


TOC извлечённого CD

Трек | Старт | Длительность | Начальный сектор | Конечный сектор
---------------------------------------------------------------------
1 | 0:00.00 | 4:42.25 | 0 | 21174
2 | 4:42.25 | 2:53.50 | 21175 | 34199
3 | 7:36.00 | 2:31.27 | 34200 | 45551
4 | 10:07.27 | 5:58.25 | 45552 | 72426
5 | 16:05.52 | 3:37.05 | 72427 | 88706
6 | 19:42.57 | 2:36.13 | 88707 | 100419
7 | 22:18.70 | 4:51.37 | 100420 | 122281
8 | 27:10.32 | 2:32.33 | 122282 | 133714
9 | 29:42.65 | 4:52.42 | 133715 | 155656
10 | 34:35.32 | 4:42.38 | 155657 | 176844
11 | 39:17.70 | 4:11.27 | 176845 | 195696
12 | 43:29.22 | 6:00.05 | 195697 | 222701
13 | 52:01.27 | 26:58.17 | 234102 | 355468


Характеристики диапазона извлечения и сообщения об ошибках

Выбранный диапазон

Имя файла C:\Users\эксперт\Music\OUTRAGE - Cause For Pause.wav

Пиковый уровень 98.8 %
Качество диапазона 100.0 %
CRC копии 674208B8
Копирование... OK

Ошибок не произошло


AccurateRip: сводка

Трек 1 нет в базе данных
Трек 2 нет в базе данных
Трек 3 нет в базе данных
Трек 4 нет в базе данных
Трек 5 нет в базе данных
Трек 6 нет в базе данных
Трек 7 нет в базе данных
Трек 8 нет в базе данных
Трек 9 нет в базе данных
Трек 10 нет в базе данных
Трек 11 нет в базе данных
Трек 12 нет в базе данных

Ни одного трека нет в базе AccurateRip

Конец отчёта


Cause For Pause


Top
 Profile  
 
 
PostPosted: 14 Mar 2015 
Генеральный thrasher
User avatar
Joined: 03 Oct 2008
Posts: 3751
Lоcаtion: Ханты-Мансийский АО
Age: 45
Name: Сергей
Image

Year:2008
Style:Speed/Thrash Metal
Country:Japan
Audio:Flac+Cue+Log+Scans
Size:364Mb+438Mb
Source:my CD
Label:Victor Entertainment
Catalog ID:VICP-64146~7

CD 1:
01.My Final Day 05:06
02.Madness 04:53
03.Follow 06:13
04.Wings 04:01
05.Sad Survivor 04:00
06.Visions 06:10
07.Veiled Sky 06:20
08.River 04:40
09.Fangs 05:17

CD 2:
01.Megalomania 05:31
02.Vanishing Fully From The World 05:35
03.Undertow 06:33
04.Midnite Carnival 05:01
05.In Union With Earth 07:29
06.Echo 03:24
07.Draggin' Me Down (Fear Is) 06:26
08.You Suck 04:49
09.Concrete Mirror 03:39
10.Argument 04:35
11.Live Until You Die 05:21

"CD 1 Cue"
REM GENRE "Thrash Metal"
REM DATE 2008
REM DISCID 790AF309
REM COMMENT "ExactAudioCopy v0.99pb5"
PERFORMER "OUTRAGE"
TITLE "AWAKENING 2008 [DISC 1] THE FINAL DAY"
FILE "OUTRAGE - AWAKENING 2008 [DISC 1] THE FINAL DAY.flac" WAVE
TRACK 01 AUDIO
TITLE "My Final Day (LIVE)"
PERFORMER "OUTRAGE"
INDEX 01 00:00:00
TRACK 02 AUDIO
TITLE "Madness (LIVE)"
PERFORMER "OUTRAGE"
INDEX 01 05:06:71
TRACK 03 AUDIO
TITLE "Follow (LIVE)"
PERFORMER "OUTRAGE"
INDEX 01 10:00:19
TRACK 04 AUDIO
TITLE "Wings (LIVE)"
PERFORMER "OUTRAGE"
INDEX 01 16:13:41
TRACK 05 AUDIO
TITLE "Sad Survivor (LIVE)"
PERFORMER "OUTRAGE"
INDEX 01 20:15:12
TRACK 06 AUDIO
TITLE "Visions (LIVE)"
PERFORMER "OUTRAGE"
INDEX 01 24:15:16
TRACK 07 AUDIO
TITLE "Veiled Sky (LIVE)"
PERFORMER "OUTRAGE"
INDEX 01 30:25:39
TRACK 08 AUDIO
TITLE "River (LIVE)"
PERFORMER "OUTRAGE"
INDEX 01 36:45:57
TRACK 09 AUDIO
TITLE "Fangs (LIVE)"
PERFORMER "OUTRAGE"
INDEX 01 41:26:52

"CD 2 Cue"
REM GENRE "Thrash Metal"
REM DATE 2008
REM DISCID 940DB40B
REM COMMENT "ExactAudioCopy v0.99pb5"
PERFORMER "OUTRAGE"
TITLE "AWAKENING 2008 (DISC 2) LIFE UNTIL DEAF"
FILE "OUTRAGE - AWAKENING 2008 (DISC 2) LIFE UNTIL DEAF.flac" WAVE
TRACK 01 AUDIO
TITLE "Megalomania"
PERFORMER "OUTRAGE"
INDEX 01 00:00:00
TRACK 02 AUDIO
TITLE "Vanishing Fully From The World"
PERFORMER "OUTRAGE"
INDEX 01 05:31:58
TRACK 03 AUDIO
TITLE "Undertow"
PERFORMER "OUTRAGE"
INDEX 01 11:07:35
TRACK 04 AUDIO
TITLE "Midnite Carnival"
PERFORMER "OUTRAGE"
INDEX 01 17:41:16
TRACK 05 AUDIO
TITLE "In Union With Earth"
PERFORMER "OUTRAGE"
INDEX 01 22:42:38
TRACK 06 AUDIO
TITLE "Echo"
PERFORMER "OUTRAGE"
INDEX 01 30:12:13
TRACK 07 AUDIO
TITLE "Draggin' Me Down (Fear Is)"
PERFORMER "OUTRAGE"
INDEX 01 33:36:72
TRACK 08 AUDIO
TITLE "You Suck"
PERFORMER "OUTRAGE"
INDEX 01 40:02:74
TRACK 09 AUDIO
TITLE "Concrete Mirror"
PERFORMER "OUTRAGE"
INDEX 01 44:52:69
TRACK 10 AUDIO
TITLE "Argument"
PERFORMER "OUTRAGE"
INDEX 01 48:31:69
TRACK 11 AUDIO
TITLE "Live Until You Die"
PERFORMER "OUTRAGE"
INDEX 01 53:07:05

"CD 1 Log"
Exact Audio Copy V0.99 prebeta 5 from 4. May 2009

Отчёт EAC об извлечении, выполненном 19. марта 2014, 12:04

OUTRAGE / AWAKENING 2008 [DISC 1] THE FINAL DAY

Дисковод: MATSHITADVD-RAM UJ8A0AS Adapter: 0 ID: 1

Режим чтения : Достоверность
Использование точного потока : Да
Отключение кэша аудио : Да
Использование указателей C2 : Нет

Коррекция смещения при чтении : 102
Способность читать области Lead-in и Lead-out : Нет
Заполнение пропущенных сэмплов тишиной : Да
Удаление блоков с тишиной в начале и конце : Нет
При вычислениях CRC использовались нулевые сэмплы : Да
Интерфейс : Встроенный Win32-интерфейс для Win NT/2000

Выходной формат : Пользовательский кодировщик
Выбранный битрейт : 1024 kBit/s
Качество : Высокий
Добавление ID3-тэга : Нет
Утилита сжатия : C:\Program Files\Exact Audio Copy\FLAC\FLAC.EXE
Дополнительные параметры : -6 -V -T "ARTIST=%a" -T "TITLE=%t" -T "ALBUM=%g" -T "DATE=%y" -T "TRACKNUMBER=%n" -T "GENRE=%m" -T "COMMENT=%e" %s -o %d


TOC извлечённого CD

Трек | Старт | Длительность | Начальный сектор | Конечный сектор
---------------------------------------------------------------------
1 | 0:00.00 | 5:06.71 | 0 | 23020
2 | 5:06.71 | 4:53.23 | 23021 | 45018
3 | 10:00.19 | 6:13.22 | 45019 | 73015
4 | 16:13.41 | 4:01.46 | 73016 | 91136
5 | 20:15.12 | 4:00.04 | 91137 | 109140
6 | 24:15.16 | 6:10.23 | 109141 | 136913
7 | 30:25.39 | 6:20.18 | 136914 | 165431
8 | 36:45.57 | 4:40.70 | 165432 | 186501
9 | 41:26.52 | 5:17.13 | 186502 | 210289


Характеристики диапазона извлечения и сообщения об ошибках

Выбранный диапазон

Имя файла C:\Users\эксперт\Music\OUTRAGE - AWAKENING 2008 [DISC 1] THE FINAL DAY.wav

Пиковый уровень 98.8 %
Качество диапазона 100.0 %
CRC копии D35AE3BE
Копирование... OK

Ошибок не произошло


AccurateRip: сводка

Трек 1 точность не определена (достоверность 1) [4B4BE3FA], AccurateRip вернул [27FF1DD8]
Трек 2 точность не определена (достоверность 1) [0038E6DC], AccurateRip вернул [153576DF]
Трек 3 точность не определена (достоверность 1) [D692D36B], AccurateRip вернул [6A0EECB7]
Трек 4 точность не определена (достоверность 1) [EBD04F3B], AccurateRip вернул [82A33FB0]
Трек 5 точность не определена (достоверность 1) [5850621B], AccurateRip вернул [79C60991]
Трек 6 точность не определена (достоверность 1) [7D61B79D], AccurateRip вернул [8F911F07]
Трек 7 точность не определена (достоверность 1) [7D41CDBB], AccurateRip вернул [6BFA8AD9]
Трек 8 точность не определена (достоверность 1) [C174D414], AccurateRip вернул [C42EB27D]
Трек 9 точность не определена (достоверность 1) [40D9B448], AccurateRip вернул [787A3704]

Ни один трек не прошёл проверки на точность
В вашей базе может быть иной вариант штамповки диска

Конец отчёта

"CD 2 Log"
Exact Audio Copy V0.99 prebeta 5 from 4. May 2009

Отчёт EAC об извлечении, выполненном 19. марта 2014, 13:07

OUTRAGE / AWAKENING 2008 (DISC 2) LIFE UNTIL DEAF

Дисковод: MATSHITADVD-RAM UJ8A0AS Adapter: 0 ID: 1

Режим чтения : Достоверность
Использование точного потока : Да
Отключение кэша аудио : Да
Использование указателей C2 : Нет

Коррекция смещения при чтении : 102
Способность читать области Lead-in и Lead-out : Нет
Заполнение пропущенных сэмплов тишиной : Да
Удаление блоков с тишиной в начале и конце : Нет
При вычислениях CRC использовались нулевые сэмплы : Да
Интерфейс : Встроенный Win32-интерфейс для Win NT/2000

Выходной формат : Пользовательский кодировщик
Выбранный битрейт : 1024 kBit/s
Качество : Высокий
Добавление ID3-тэга : Нет
Утилита сжатия : C:\Program Files\Exact Audio Copy\FLAC\FLAC.EXE
Дополнительные параметры : -6 -V -T "ARTIST=%a" -T "TITLE=%t" -T "ALBUM=%g" -T "DATE=%y" -T "TRACKNUMBER=%n" -T "GENRE=%m" -T "COMMENT=%e" %s -o %d


TOC извлечённого CD

Трек | Старт | Длительность | Начальный сектор | Конечный сектор
---------------------------------------------------------------------
1 | 0:00.00 | 5:31.58 | 0 | 24882
2 | 5:31.58 | 5:35.52 | 24883 | 50059
3 | 11:07.35 | 6:33.56 | 50060 | 79590
4 | 17:41.16 | 5:01.22 | 79591 | 102187
5 | 22:42.38 | 7:29.50 | 102188 | 135912
6 | 30:12.13 | 3:24.59 | 135913 | 151271
7 | 33:36.72 | 6:26.02 | 151272 | 180223
8 | 40:02.74 | 4:49.70 | 180224 | 201968
9 | 44:52.69 | 3:39.00 | 201969 | 218393
10 | 48:31.69 | 4:35.11 | 218394 | 239029
11 | 53:07.05 | 5:21.10 | 239030 | 263114


Характеристики диапазона извлечения и сообщения об ошибках

Выбранный диапазон

Имя файла C:\Users\эксперт\Music\OUTRAGE - AWAKENING 2008 (DISC 2) LIFE UNTIL DEAF.wav

Пиковый уровень 98.9 %
Качество диапазона 100.0 %
CRC копии 873B7905
Копирование... OK

Ошибок не произошло


AccurateRip: сводка

Трек 1 точность не определена (достоверность 1) [C5933014], AccurateRip вернул [8FE778A1]
Трек 2 точность не определена (достоверность 1) [D4EC69ED], AccurateRip вернул [E2F410FB]
Трек 3 точность не определена (достоверность 1) [ED5AE74E], AccurateRip вернул [520B399F]
Трек 4 точность не определена (достоверность 1) [E4593FCB], AccurateRip вернул [1D8103F6]
Трек 5 точность не определена (достоверность 1) [38F3591F], AccurateRip вернул [FE736743]
Трек 6 точность не определена (достоверность 1) [7B0D4BC6], AccurateRip вернул [7A20DA49]
Трек 7 точность не определена (достоверность 1) [1A50E935], AccurateRip вернул [07DE0EB0]
Трек 8 точность не определена (достоверность 1) [5E8B0DB9], AccurateRip вернул [78097F72]
Трек 9 точность не определена (достоверность 1) [0B12128E], AccurateRip вернул [6A7BD6AD]
Трек 10 точность не определена (достоверность 1) [498B0674], AccurateRip вернул [267EE9D4]
Трек 11 точность не определена (достоверность 1) [895C454B], AccurateRip вернул [A51BA372]

Ни один трек не прошёл проверки на точность
В вашей базе может быть иной вариант штамповки диска

Конец отчёта


Awakening CD 1
Awakening CD 2


Top
 Profile  
 
 
PostPosted: 16 Mar 2015 
Генеральный thrasher
User avatar
Joined: 03 Oct 2008
Posts: 3751
Lоcаtion: Ханты-Мансийский АО
Age: 45
Name: Сергей
Прикупил второй альбом.Придёт - продолжим дискографию... :lloo:


Top
 Profile  
 
 
PostPosted: 16 Mar 2015 
Работнечег
User avatar
Joined: 28 Aug 2007
Posts: 6363
Lоcаtion: г. Москва
Age: 31
Name: Дима
Останется еще 24-7 для полной дискографии не считая ливничков? :smile:


Top
 Profile E-mail  
 
 
PostPosted: 17 Mar 2015 
Генеральный thrasher
User avatar
Joined: 03 Oct 2008
Posts: 3751
Lоcаtion: Ханты-Мансийский АО
Age: 45
Name: Сергей
Ещё 2013 - Outraged не куплен,Дим.


Top
 Profile  
 
 
PostPosted: 18 Mar 2015 
Alive Again
User avatar
Joined: 17 Dec 2008
Posts: 4750
Lоcаtion: Курск Воронеж Оскол
Age: 46
Name: Дмитрий
отличная группа, :thanx:


Top
 Profile E-mail  
 
 
PostPosted: 31 Mar 2015 
Генеральный thrasher
User avatar
Joined: 03 Oct 2008
Posts: 3751
Lоcаtion: Ханты-Мансийский АО
Age: 45
Name: Сергей
Image

Year:1989
Style:Speed/Thrash Metal
Country:Japan
Audio:Flac+Cue+Log+Scans
Size:426Mb
Source:my CD
Label:Polydor
Catalog ID:POCP-20231

Tracklist:
01. Blind To Reality 05:29
02. In His Steel Claw 08:52
03. Call Of The Hunter 06:41
04. Nowhere To Turn 08:30
05. Name Your Poison 04:59
06. Game of Greed 06:40
07. What Is The Meaning Of Freedom? 06:37
08. Lookin' At Time 11:02

"Cue"
REM GENRE "Thrash Metal"
REM DATE 1989
REM DISCID 7F0DD308
REM COMMENT "ExactAudioCopy v0.99pb5"
PERFORMER "Outrage"
TITLE "Blind To Reality"
FILE "Outrage - Blind To Reality.flac" WAVE
TRACK 01 AUDIO
TITLE "Blind To Reality"
PERFORMER "Outrage"
INDEX 00 00:00:00
INDEX 01 00:00:37
TRACK 02 AUDIO
TITLE "In His Steel Claw"
PERFORMER "Outrage"
INDEX 01 05:29:67
TRACK 03 AUDIO
TITLE "Call Of The Hunter"
PERFORMER "Outrage"
INDEX 00 14:22:62
INDEX 01 14:24:37
TRACK 04 AUDIO
TITLE "Nowhere To Turn"
PERFORMER "Outrage"
INDEX 01 21:05:67
TRACK 05 AUDIO
TITLE "Name Your Poison"
PERFORMER "Outrage"
INDEX 00 29:36:02
INDEX 01 29:37:37
TRACK 06 AUDIO
TITLE "Game Of Greed"
PERFORMER "Outrage"
INDEX 00 34:36:74
INDEX 01 34:37:37
TRACK 07 AUDIO
TITLE "What Is The Meaning Of Freedom?"
PERFORMER "Outrage"
INDEX 01 41:18:17
TRACK 08 AUDIO
TITLE "Lockin' At Time"
PERFORMER "Outrage"
INDEX 00 47:55:59
INDEX 01 47:57:50

"Log"
Exact Audio Copy V0.99 prebeta 5 from 4. May 2009

Отчёт EAC об извлечении, выполненном 30. марта 2015, 17:42

Outrage / Blind To Reality

Дисковод: MATSHITADVD-RAM UJ8A0AS Adapter: 0 ID: 1

Режим чтения : Достоверность
Использование точного потока : Да
Отключение кэша аудио : Да
Использование указателей C2 : Нет

Коррекция смещения при чтении : 102
Способность читать области Lead-in и Lead-out : Нет
Заполнение пропущенных сэмплов тишиной : Да
Удаление блоков с тишиной в начале и конце : Нет
При вычислениях CRC использовались нулевые сэмплы : Да
Интерфейс : Встроенный Win32-интерфейс для Win NT/2000

Выходной формат : Пользовательский кодировщик
Выбранный битрейт : 1024 kBit/s
Качество : Высокий
Добавление ID3-тэга : Нет
Утилита сжатия : C:\Program Files\Exact Audio Copy\FLAC\FLAC.EXE
Дополнительные параметры : -6 -V -T "ARTIST=%a" -T "TITLE=%t" -T "ALBUM=%g" -T "DATE=%y" -T "TRACKNUMBER=%n" -T "GENRE=%m" -T "COMMENT=%e" %s -o %d


TOC извлечённого CD

Трек | Старт | Длительность | Начальный сектор | Конечный сектор
---------------------------------------------------------------------
1 | 0:00.37 | 5:29.30 | 37 | 24741
2 | 5:29.67 | 8:54.45 | 24742 | 64836
3 | 14:24.37 | 6:41.30 | 64837 | 94941
4 | 21:05.67 | 8:31.45 | 94942 | 133311
5 | 29:37.37 | 5:00.00 | 133312 | 155811
6 | 34:37.37 | 6:40.55 | 155812 | 185866
7 | 41:18.17 | 6:39.33 | 185867 | 215824
8 | 47:57.50 | 11:02.05 | 215825 | 265479


Характеристики диапазона извлечения и сообщения об ошибках

Выбранный диапазон

Имя файла C:\Users\эксперт\Music\Outrage - Blind To Reality.wav

Пиковый уровень 100.0 %
Качество диапазона 100.0 %
CRC копии 1344EB5A
Копирование... OK

Ошибок не произошло


AccurateRip: сводка

Трек 1 точное извлечение (доверие 1) [F0E3A3B7]
Трек 2 точное извлечение (доверие 1) [56DC5480]
Трек 3 точное извлечение (доверие 1) [409A943A]
Трек 4 точное извлечение (доверие 1) [F3B3DE3C]
Трек 5 точное извлечение (доверие 1) [051EF824]
Трек 6 точное извлечение (доверие 1) [49C79354]
Трек 7 точное извлечение (доверие 1) [6F655766]
Трек 8 точное извлечение (доверие 1) [96F914D6]

Все треки извлечены точно

Конец отчёта


Blind To Reality


Top
 Profile  
 
 
PostPosted: 31 Mar 2015 
Прокъмитолист
User avatar
Joined: 12 Aug 2007
Posts: 6768
Lоcаtion: Санктъ-Петербуркъ
Age: 52
Name: Олекъ
:thanx:

_________________
прокъметол - это музыко, от которово есть прок (ы)


Top
 Profile  
 
 
PostPosted: 31 Mar 2015 
Генеральный thrasher
User avatar
Joined: 03 Oct 2008
Posts: 3751
Lоcаtion: Ханты-Мансийский АО
Age: 45
Name: Сергей
Лучшие альбомы собраны.Остальное когда-нибудь дособираю... :mir:


Top
 Profile  
 
 
PostPosted: 31 Mar 2015 
Работнечег
User avatar
Joined: 28 Aug 2007
Posts: 6363
Lоcаtion: г. Москва
Age: 31
Name: Дима
:thanx: :thanx:


Top
 Profile E-mail  
 
 
PostPosted: 10 May 2015 
ТрэшЭрос
User avatar
Joined: 18 Jul 2011
Posts: 2307
Lоcаtion: Гулькевичи
Age: 45
Name: Александр
thorbeorn, :thanx:
Забрал оба ранних альбома. Даже для Японии конца 80-х довольно солидный материал! Между аккордов прослушивается ...Metallica? :true:

_________________
Thrash no trash!!!


Top
 Profile E-mail  
 
 
PostPosted: 10 May 2015 
парень в очёчкXаX!
User avatar
Joined: 15 Aug 2007
Posts: 2353
Lоcаtion: UK'раина, г. ЛондАн Би-Би-Си
Age: 49
Name: Сергей
наткнулся по АПу темы :shok:

скачал интересующий меня материал - двойник Awakening 2008
сегодня ночью бу' слушать :meloman:

Сережа :thanx:

с ув. :lob:


Top
 Profile  
 
 
PostPosted: 10 May 2015 
Хиппей (support team)
User avatar
Joined: 30 Jul 2007
Posts: 119327
Lоcаtion: Киев (Kyiv, UA)
Age: 47
Name: Andrey
О как, и я не качал ещё...
Серёга, спасибо!! :thanx: :lob: :lob: :lob:



Outrage - Black Clouds

mirror: iFolrer l Narod l M-Cloud

_________________


Top
 Profile E-mail  
 
 
PostPosted: 11 Oct 2017 
Доктор энтомологии
User avatar
Joined: 22 Jan 2009
Posts: 10284
Lоcаtion: Даугавпилс
Age: 45
Name: Алексей
Cвежий альбом дальневосточных Тестаментов (песенко Territorial Dispute) - кач и моща, но, современный, конечно, - на любителя :meloman: :band: Местами (Machete) вокалист глоткой дерёт как поздний Арайя :crazy: Эпичная песенко есть и имя ей - Wake - :lob: Песенко Hysteric Creatures начинается как Bombenhagel и далее веселенькая такая :meloman: Spin, песенко, словно микс одного из кавера Метальки из первых гаражей, слегка примоторхэдованная с припунковываниями :kaz: Завтра продолжу рецензию. Жена фен включила :meloman:
| +
- пойдем поужинаем сейчас сушами в японо-ресторанчик :lloo: Вот и наступил следующий день и вечер - продолжаем дальше слушать. Песенка "We Warn All Belongs" нас опять встречает развеселой японской версией американского бэй-эрио-трасха, нечто под Тестамент с чутком Мегадэта, рокенрольными проходами между вокализами и замечтательными, надо сказать, соло-партиями; коротенькая, скоростная - добротная тема. Нероеs Falling - идёт следом, опять боевичок с распевками "под хэви метал" и хорами, мелодия, которую поет вокалист ртом, напоминает какую-то песенку из Метальки-88; в серединке песенки есть неплохо продуманная партия засоленных гитар. Телега Wolf and Raven: жизнеутверждающее начало, раскачка и веселое пение японца! Пожалуй, эта тема вдохновлена не только американским трэшем, но и американским же поп-панком начала 90-х. Песенка Outrage - опять веселый трэш-боевик.
В общем, альбом у японских Аутраже - удался. Предыдущие я не помню особо, там вродь тоже чуваки заигрывали с бэй эрея. В общем - крепкая оценка альбому. Музыка подойдет для шумной пьяной вечеринки практикующим меломанам-металистам, а не только коллекционерами кругляшек. Много лет жизни тебе, имератор Акихито :oldman:


Top
 Profile  
 
 
PostPosted: 14 Oct 2017 
семерых одним ударом
Joined: 18 Aug 2007
Posts: 4641
Lоcаtion: Владивосток
Age: 45
Name: Николай Николаевич
Нормальный альбом


Top
 Profile  
 
 
PostPosted: 14 Oct 2017 
Хиппей (support team)
User avatar
Joined: 30 Jul 2007
Posts: 119327
Lоcаtion: Киев (Kyiv, UA)
Age: 47
Name: Andrey
Как-ото здесь все ссылки швахнулись...
И Алексей молчит, который запросы делал :vic:

Или типа всё уже найдено?

_________________


Top
 Profile E-mail  
 
Display posts from previous:  Sort by  
Post new topic Reply to topic  [ 125 posts ]  Go to page Previous  1, 2, 3, 4, 5, 6, 7  Next

All times are UTC + 3 hours


Who is online

Users browsing this forum: No registered users and 1 guest


You cannot post new topics in this forum
You cannot reply to topics in this forum
You cannot edit your posts in this forum
You cannot delete your posts in this forum
You cannot post attachments in this forum

Search for:
Яндекс.Метрика
Powered by phpBB © 2000, 2002, 2005, 2007 phpBB Group