\m/ 80's metal \m/

Информационно-аналитический форум "80 см пыли" (In Search We Trust) "У нас никто никуда не спешит"
Железнодорожная биржа - RailAgent
It is currently 21 Nov 2017

All times are UTC + 3 hours

Spoiler
Chat - temporary registration for foreign users (please leave your application here)







Post new topic Reply to topic  [ 10 posts ] 
Author Message
 
PostPosted: 05 Sep 2013 
Хиппей (support team)
User avatar
Joined: 30 Jul 2007
Posts: 95757
Lоcаtion: Киев (Kyiv, UA)
Age: 44
Name: Andrey
На хрена я эту тему завожу?
Дык, нашёл у себя в архивах всю дискографию этой группы и забэпил. Так почему бы и сюда ссылки не тыкнуть :pardon:

Odium - 2010 - Stop My Anger [flac]

Image
ImageImageImage
ImageImage


Line-up:
Ralf Runkel - vocals
Belinda Ann Smaka - bass
Marcus Uchtmann - drums
Rochus Pfaff - guitars
David Hübsch - guitars


    1. Introduction to My Mind - 01:17
    2. Getting Closer - 04:30
    3. Salvation - 04:07
    4. Burn Your Idols - 03:58
    5. Life Goes On - 04:27
    6. Warleader - 05:30
    7. Center of My Life - 03:08
    8. Stop My Anger - 03:49
    9. A Look Inside - 03:39
    10. Suicide - 05:29

    TPT: 39:54

Narod

Для меня сий альбом ничо интересного не представляет. Павер с переходами или даже заползаниями в трэш в духе Металлики Load/Reload.
Но всё как-то суетливо и наигранно. В смысле, неестественно и натужно.

3/10

Но парочка композиций попалась достойных.
Для упоротых любителей подобного стиля и ваще для любителей абы шо покачать :dance:

зы. Автора рипа не знаю. Явно о нём нам скажет лог :vic:

ыз. Да, указано как Денис "Den@k" :thanx:

log
Exact Audio Copy V1.0 beta 1 from 15. November 2010

EAC extraction logfile from 16. May 2011, 22:17

ODIUM / Stop My Anger

Used drive : Optiarc DVD RW AD-7203A Adapter: 0 ID: 1

Read mode : Secure
Utilize accurate stream : Yes
Defeat audio cache : Yes
Make use of C2 pointers : No

Read offset correction : 48
Overread into Lead-In and Lead-Out : No
Fill up missing offset samples with silence : Yes
Delete leading and trailing silent blocks : No
Null samples used in CRC calculations : Yes
Used interface : Native Win32 interface for Win NT & 2000

Used output format : User Defined Encoder
Selected bitrate : 1024 kBit/s
Quality : High
Add ID3 tag : Yes
Command line compressor : C:\Program Files (x86)\Exact Audio Copy 1.0b\FLAC\FLAC.EXE
Additional command line options : -6 -V -T "ARTIST=%a" -T "TITLE=%t" -T "ALBUM=%g" -T "DATE=%y" -T "TRACKNUMBER=%n" -T "GENRE=%m" -T "COMMENT=%e" %j--picture="%i"%j %s -o %d


TOC of the extracted CD

Track | Start | Length | Start sector | End sector
---------------------------------------------------------
1 | 0:00.00 | 1:17.26 | 0 | 5800
2 | 1:17.26 | 4:30.33 | 5801 | 26083
3 | 5:47.59 | 4:08.01 | 26084 | 44684
4 | 9:55.60 | 3:58.30 | 44685 | 62564
5 | 13:54.15 | 4:27.51 | 62565 | 82640
6 | 18:21.66 | 5:30.27 | 82641 | 107417
7 | 23:52.18 | 3:08.39 | 107418 | 121556
8 | 27:00.57 | 3:49.47 | 121557 | 138778
9 | 30:50.29 | 3:39.29 | 138779 | 155232
10 | 34:29.58 | 5:29.29 | 155233 | 179936


Range status and errors

Selected range

Filename H:\DEN@K\ODIUM - Stop My Anger 2010\ODIUM - Stop My Anger.wav

Peak level 96.5 %
Extraction speed 0.5 X
Range quality 99.9 %
Test CRC E6CCC8C1
Copy CRC E6CCC8C1
Copy OK

No errors occurred


AccurateRip summary

Track 1 not present in database
Track 2 not present in database
Track 3 not present in database
Track 4 not present in database
Track 5 not present in database
Track 6 not present in database
Track 7 not present in database
Track 8 not present in database
Track 9 not present in database
Track 10 not present in database

None of the tracks are present in the AccurateRip database

End of status report

==== Log checksum 2217839B431977479521F2AFA480CA13B493B95D350FC2C7CA6EF70A175A04C3 ====

cue
REM GENRE "Thrash/Power Metal"
REM DATE 2010
REM DISCID 7E095F0A
REM COMMENT "ExactAudioCopy v1.0b1"
PERFORMER "ODIUM"
TITLE "Stop My Anger"
FILE "ODIUM - Stop My Anger.flac" WAVE
TRACK 01 AUDIO
TITLE "Introduction to my mind"
PERFORMER "ODIUM"
INDEX 01 00:00:00
TRACK 02 AUDIO
TITLE "Getting Closer"
PERFORMER "ODIUM"
INDEX 01 01:17:26
TRACK 03 AUDIO
TITLE "Salvation"
PERFORMER "ODIUM"
INDEX 01 05:47:59
TRACK 04 AUDIO
TITLE "Burn your idols"
PERFORMER "ODIUM"
INDEX 01 09:55:60
TRACK 05 AUDIO
TITLE "Life goes on"
PERFORMER "ODIUM"
INDEX 01 13:54:15
TRACK 06 AUDIO
TITLE "Warleader"
PERFORMER "ODIUM"
INDEX 01 18:21:66
TRACK 07 AUDIO
TITLE "Centered"
PERFORMER "ODIUM"
INDEX 01 23:52:18
TRACK 08 AUDIO
TITLE "Stop My Anger"
PERFORMER "ODIUM"
INDEX 01 27:00:57
TRACK 09 AUDIO
TITLE "A Look Inside"
PERFORMER "ODIUM"
INDEX 01 30:50:29
TRACK 10 AUDIO
TITLE "Suicide"
PERFORMER "ODIUM"
INDEX 01 34:29:58

spectrum
Image

_________________


Top
 Profile E-mail  
 
 
PostPosted: 06 Sep 2013 
Хиппей (support team)
User avatar
Joined: 30 Jul 2007
Posts: 95757
Lоcаtion: Киев (Kyiv, UA)
Age: 44
Name: Andrey
Odium - 2004 - Written In Flesh [flac]

ImageImage

Line-up:
Reinhard Runkel - vocals
Rochus Pfaff - guitars
David Hübsch - guitars
Christoph Reiber - bass
Tobias Link - drums

    1. Searching for the Exit - 04:20
    2. Paperhouse - 04:56
    3. Written in Flesh - 03:07
    4. Memories of a Trip to Come - 01:58
    5. All is Bleeding - 04:37
    6. bé :orscype - 02:47
    7. Beyond the Limits - 05:25
    8. As Dead as Leaves - 05:30
    9. Chaotic - 04:23
    10. [konfident?] - 07:24
    11. The Trip Returns - 01:47

    TPT: 46:14

Narod

Бывает музыка хорошая, бывает так себе. А бывает фигня (даже больше скажу - хрень) несусветная.
Вот именно таким альбомом и оказался этот полноформатник у группы :beee:
это какой-то паверкор, если не сказать иначе. Но... иначе нужно будет еще штук 15 стилей перечислить, которые пытается здесь исполнять этот коллектив с "оригинальным" названием.
В общем, извращенцам посвящается :thanx:

-2/10

log
Exact Audio Copy V1.0 beta 1 from 15. November 2010

EAC extraction logfile from 16. May 2011, 23:42

ODIUM / Written In Flesh

Used drive : Optiarc DVD RW AD-7203A Adapter: 0 ID: 1

Read mode : Secure
Utilize accurate stream : Yes
Defeat audio cache : Yes
Make use of C2 pointers : No

Read offset correction : 48
Overread into Lead-In and Lead-Out : No
Fill up missing offset samples with silence : Yes
Delete leading and trailing silent blocks : No
Null samples used in CRC calculations : Yes
Used interface : Native Win32 interface for Win NT & 2000

Used output format : User Defined Encoder
Selected bitrate : 1024 kBit/s
Quality : High
Add ID3 tag : Yes
Command line compressor : C:\Program Files (x86)\Exact Audio Copy 1.0b\FLAC\FLAC.EXE
Additional command line options : -6 -V -T "ARTIST=%a" -T "TITLE=%t" -T "ALBUM=%g" -T "DATE=%y" -T "TRACKNUMBER=%n" -T "GENRE=%m" -T "COMMENT=%e" %j--picture="%i"%j %s -o %d


TOC of the extracted CD

Track | Start | Length | Start sector | End sector
---------------------------------------------------------
1 | 0:00.01 | 4:19.74 | 1 | 19499
2 | 4:20.00 | 4:56.33 | 19500 | 41732
3 | 9:16.33 | 3:07.32 | 41733 | 55789
4 | 12:23.65 | 1:58.12 | 55790 | 64651
5 | 14:22.02 | 4:37.34 | 64652 | 85460
6 | 18:59.36 | 2:47.29 | 85461 | 98014
7 | 21:46.65 | 5:25.58 | 98015 | 122447
8 | 27:12.48 | 5:30.52 | 122448 | 147249
9 | 32:43.25 | 4:23.56 | 147250 | 167030
10 | 37:07.06 | 7:23.69 | 167031 | 200324
11 | 44:31.00 | 1:47.22 | 200325 | 208371


Range status and errors

Selected range

Filename H:\DEN@K\ODIUM - Written In Flesh 2004\ODIUM - Written In Flesh.wav

Peak level 100.0 %
Extraction speed 0.1 X
Range quality 100.0 %
Test CRC 6F185A28
Copy CRC 6F185A28
Copy OK

No errors occurred


AccurateRip summary

Track 1 not present in database
Track 2 not present in database
Track 3 not present in database
Track 4 not present in database
Track 5 not present in database
Track 6 not present in database
Track 7 not present in database
Track 8 not present in database
Track 9 not present in database
Track 10 not present in database
Track 11 not present in database

None of the tracks are present in the AccurateRip database

End of status report

==== Log checksum BA7ED8A362FEDAEF0795329C2121846C3096BBE1D033291192FD19FD62C58D29 ====

cue
REM GENRE "Thrash/Power Metal"
REM DATE 2004
REM DISCID 970ADA0B
REM COMMENT "ExactAudioCopy v1.0b1"
PERFORMER "ODIUM"
TITLE "Written In Flesh"
FILE "ODIUM - Written In Flesh.flac" WAVE
TRACK 01 AUDIO
TITLE "Searching For The Exit"
PERFORMER "ODIUM"
FLAGS DCP
INDEX 00 00:00:00
INDEX 01 00:00:01
TRACK 02 AUDIO
TITLE "Paperhouse"
PERFORMER "ODIUM"
FLAGS DCP
INDEX 01 04:20:00
TRACK 03 AUDIO
TITLE "Written In Flesh"
PERFORMER "ODIUM"
FLAGS DCP
INDEX 01 09:16:33
TRACK 04 AUDIO
TITLE "Memories Of A Trip To Come"
PERFORMER "ODIUM"
FLAGS DCP
INDEX 01 12:23:65
TRACK 05 AUDIO
TITLE "All Is Bleeding"
PERFORMER "ODIUM"
FLAGS DCP
INDEX 01 14:22:02
TRACK 06 AUDIO
TITLE "be :orscype"
PERFORMER "ODIUM"
FLAGS DCP
INDEX 01 18:59:36
TRACK 07 AUDIO
TITLE "Beyond The Limits"
PERFORMER "ODIUM"
FLAGS DCP
INDEX 01 21:46:65
TRACK 08 AUDIO
TITLE "As Dead As Leaves"
PERFORMER "ODIUM"
FLAGS DCP
INDEX 01 27:12:48
TRACK 09 AUDIO
TITLE "Chaotic"
PERFORMER "ODIUM"
FLAGS DCP
INDEX 01 32:43:25
TRACK 10 AUDIO
TITLE "[konfident?]"
PERFORMER "ODIUM"
FLAGS DCP
INDEX 01 37:07:06
TRACK 11 AUDIO
TITLE "The Trip Returns"
PERFORMER "ODIUM"
FLAGS DCP
INDEX 01 44:31:00

other scans
Image
Image
Image
Image

spectrum
Image

_________________


Top
 Profile E-mail  
 
 
PostPosted: 06 Sep 2013 
Хиппей (support team)
User avatar
Joined: 30 Jul 2007
Posts: 95757
Lоcаtion: Киев (Kyiv, UA)
Age: 44
Name: Andrey
Odium - 2001 - A New Beginning [flac]

ImageImage

Line-up:
Reinhard Runkel - vocals
Rochus Pfaff - guitars
David Hübsch - guitars
Christoph Reiber - bass
Tobias Link - drums

    1. A New Beginning - 05:27
    2. Hopeless - 04:44
    3. Beast By Society - 04:28
    4. Brainscreen - 03:14
    5. No One But Me - 05:33
    6. Swallow - 03:40
    7. Count the Cost - 04:43
    8. At the Tomb - 05:47
    9. My Dying Day - 04:30

    TPT: 42:06

Narod

Почти как последующий альбом, но еще всё не так мерзко.
По ходу, группу как раз нужно слушать в обратном отсчёте дискографии :dance:

1/10

log
Exact Audio Copy V1.0 beta 1 from 15. November 2010

EAC extraction logfile from 16. May 2011, 22:51

ODIUM / A New Beginning

Used drive : Optiarc DVD RW AD-7203A Adapter: 0 ID: 1

Read mode : Secure
Utilize accurate stream : Yes
Defeat audio cache : Yes
Make use of C2 pointers : No

Read offset correction : 48
Overread into Lead-In and Lead-Out : No
Fill up missing offset samples with silence : Yes
Delete leading and trailing silent blocks : No
Null samples used in CRC calculations : Yes
Used interface : Native Win32 interface for Win NT & 2000

Used output format : User Defined Encoder
Selected bitrate : 1024 kBit/s
Quality : High
Add ID3 tag : Yes
Command line compressor : C:\Program Files (x86)\Exact Audio Copy 1.0b\FLAC\FLAC.EXE
Additional command line options : -6 -V -T "ARTIST=%a" -T "TITLE=%t" -T "ALBUM=%g" -T "DATE=%y" -T "TRACKNUMBER=%n" -T "GENRE=%m" -T "COMMENT=%e" %j--picture="%i"%j %s -o %d


TOC of the extracted CD

Track | Start | Length | Start sector | End sector
---------------------------------------------------------
1 | 0:00.01 | 5:27.36 | 1 | 24561
2 | 5:27.37 | 4:44.22 | 24562 | 45883
3 | 10:11.59 | 4:28.35 | 45884 | 66018
4 | 14:40.19 | 3:14.67 | 66019 | 80635
5 | 17:55.11 | 5:33.20 | 80636 | 105630
6 | 23:28.31 | 3:40.11 | 105631 | 122141
7 | 27:08.42 | 4:43.42 | 122142 | 143408
8 | 31:52.09 | 5:47.44 | 143409 | 169477
9 | 37:39.53 | 4:30.69 | 169478 | 189796


Range status and errors

Selected range

Filename H:\DEN@K\ODIUM - A New Beginning 2001\ODIUM - A New Beginning.wav

Peak level 100.0 %
Extraction speed 0.3 X
Range quality 99.9 %
Test CRC 6AE361D1
Copy CRC 6AE361D1
Copy OK

No errors occurred


AccurateRip summary

Track 1 not present in database
Track 2 not present in database
Track 3 not present in database
Track 4 not present in database
Track 5 not present in database
Track 6 not present in database
Track 7 not present in database
Track 8 not present in database
Track 9 not present in database

None of the tracks are present in the AccurateRip database

End of status report

==== Log checksum 04FB7D2054EA5B065369FCF34935926D192FCB530BE83FBA95774E221F3CBCB8 ====

cue
REM GENRE "Thrash/Power Metal"
REM DATE 2001
REM DISCID 6509E209
REM COMMENT "ExactAudioCopy v1.0b1"
PERFORMER "ODIUM"
TITLE "A New Beginning"
FILE "ODIUM - A New Beginning.flac" WAVE
TRACK 01 AUDIO
TITLE "A New Beginning"
PERFORMER "ODIUM"
FLAGS DCP
INDEX 00 00:00:00
INDEX 01 00:00:01
TRACK 02 AUDIO
TITLE "Hopeless"
PERFORMER "ODIUM"
FLAGS DCP
INDEX 01 05:27:37
TRACK 03 AUDIO
TITLE "Beast By Society"
PERFORMER "ODIUM"
FLAGS DCP
INDEX 01 10:11:59
TRACK 04 AUDIO
TITLE "Brainscreen"
PERFORMER "ODIUM"
FLAGS DCP
INDEX 01 14:40:19
TRACK 05 AUDIO
TITLE "No One But Me"
PERFORMER "ODIUM"
FLAGS DCP
INDEX 01 17:55:11
TRACK 06 AUDIO
TITLE "Swallow"
PERFORMER "ODIUM"
FLAGS DCP
INDEX 01 23:28:31
TRACK 07 AUDIO
TITLE "Count The Cost"
PERFORMER "ODIUM"
FLAGS DCP
INDEX 01 27:08:42
TRACK 08 AUDIO
TITLE "At The Tomb"
PERFORMER "ODIUM"
FLAGS DCP
INDEX 01 31:52:09
TRACK 09 AUDIO
TITLE "My Dying Day"
PERFORMER "ODIUM"
FLAGS DCP
INDEX 01 37:39:53

spectrum
Image

other scans
ImageImage

_________________


Top
 Profile E-mail  
 
 
PostPosted: 06 Sep 2013 
ТрэшЭрос
User avatar
Joined: 18 Jul 2011
Posts: 2292
Lоcаtion: Гулькевичи
Age: 42
Name: Александр
А шо там за деваха гарна выглядывает слева из-за стекла бокса при увеличении фото? Белинда, да? :crazy:

Image

_________________
Thrash no trash!!!


Top
 Profile E-mail  
 
 
PostPosted: 06 Sep 2013 
Хиппей (support team)
User avatar
Joined: 30 Jul 2007
Posts: 95757
Lоcаtion: Киев (Kyiv, UA)
Age: 44
Name: Andrey
Ггг, паливо :crazy:

_________________


Top
 Profile E-mail  
 
 
PostPosted: 07 Sep 2013 
Доктор энтомологии
User avatar
Joined: 22 Jan 2009
Posts: 8380
Lоcаtion: Даугавпилс
Age: 42
Name: Алексей
ой, привидениё :leo: :horror:


Top
 Profile  
 
 
PostPosted: 07 Sep 2013 
Хиппей (support team)
User avatar
Joined: 30 Jul 2007
Posts: 95757
Lоcаtion: Киев (Kyiv, UA)
Age: 44
Name: Andrey
Scatterbrain wrote:
Odium - 2001 - A New Beginning

Хм, а вот решил всё же еще несколько раз переслушать этот альбом и... А довольно неплохой такой кхм... почти классик дум здесь играет группа.
Естественно, не чета таким титанам жанра как Tiamat, Lake Of Tears или своих же соотечественников Crematory, но... не так уж и нудно на самом деле и разношерстно, как это случилось дальше у коллектива.
Я понимаю, что неспешный хиви-павер-трэш очень среднетемповой это вовсе не дум-метол, но, блин, очень где-то рядом =)
Да и вокал здесь как нельзя в тему и мелодии красивые попадаются.
В общем, меняю оценку альбому на:

5/10

_________________


Top
 Profile E-mail  
 
 
PostPosted: 08 Sep 2013 
Хиппей (support team)
User avatar
Joined: 30 Jul 2007
Posts: 95757
Lоcаtion: Киев (Kyiv, UA)
Age: 44
Name: Andrey
Odium - 1998 - Into The Outfields [192]

Image

Line-up:
Dirk Berge - vocals
Rochus Pfaff - guitars
David Hübsch - guitars
Joachim Weingärtner - bass
Tobias Link - drums

    1. Into the Outfields - 04:21
    2. Dark Child - 05:38
    3. You Stole My Youth - 04:12
    4. Timeless - 04:17
    5. Terminal Breath - 04:24
    6. Kill the Bitch - 03:36
    7. Tomorrow's Gone - 04:12
    8. Mindbender - 05:24
    9. My Dying Day - 04:26

    TPT: 40:30

Narod

Это просто мракобесие какое-то =) Особенно вокалист, не зря его сразу же сменили. Ибо позирище, петь не умет, но читает неплохо лирику.
По стилистке это... эээ... ууу... что-то типа мрачное и тяжелое :fingal: Думовое немного. Но почти без порыкиваний. Некий голос просто ноет и типа поёт.
Ну ок, пусть будет как выше указано в тэгах - притрэшованный павер. Только медленный, очень среднетемповой.

0/10

Впрочем, сейчас более внимательно послушаю еще раз.

А вообще, смотрю я на состав данной группы, на его текучесть кадров и понимаю, чего это они играли всякое разное на разных альбомах :pardon:

_________________


Top
 Profile E-mail  
 
 
PostPosted: 08 Sep 2013 
Хиппей (support team)
User avatar
Joined: 30 Jul 2007
Posts: 95757
Lоcаtion: Киев (Kyiv, UA)
Age: 44
Name: Andrey
Тьху, нашёл в гугло-поиске тему у нас на форуме по группе viewtopic.php?f=120&t=10096 :fingal:

Позже явно объединю.

_________________


Top
 Profile E-mail  
 
 
PostPosted: 08 Sep 2013 
Хиппей (support team)
User avatar
Joined: 30 Jul 2007
Posts: 95757
Lоcаtion: Киев (Kyiv, UA)
Age: 44
Name: Andrey
Scatterbrain wrote:
Впрочем, сейчас более внимательно послушаю еще раз.

Как не слушай, всё равно дерьмо-альбом :pardon:
Кстати, насколько смог сверить с другими рипами, везде присутствует на первом трэке в самом конце артефакт в виде попёрдывания.

_________________


Top
 Profile E-mail  
 
Display posts from previous:  Sort by  
Post new topic Reply to topic  [ 10 posts ] 

All times are UTC + 3 hours


Who is online

Users browsing this forum: No registered users and 1 guest


You cannot post new topics in this forum
You cannot reply to topics in this forum
You cannot edit your posts in this forum
You cannot delete your posts in this forum
You cannot post attachments in this forum

Search for:
Яндекс.Метрика
Powered by phpBB © 2000, 2002, 2005, 2007 phpBB Group