\m/ 80's metal \m/

Информационно-аналитический форум "80 см пыли" (In Search We Trust) "У нас никто никуда не спешит"
Железнодорожная биржа - RailAgent
It is currently 21 Nov 2017

All times are UTC + 3 hours

Spoiler
Chat - temporary registration for foreign users (please leave your application here)







Post new topic Reply to topic  [ 8 posts ] 
Author Message
 
PostPosted: 02 Mar 2013 
Работнечег
User avatar
Joined: 28 Aug 2007
Posts: 5000
Lоcаtion: г. Москва
Age: 28
Name: Дима
Image

Band: Overload
Album: The Difference Of Opinion
Year: 1993
Label: Black Mark Prod
Genre: Heavy Metal
Coutry: Sweden
Format: Flac + Log + Cue + Covers
Size: 248 Mb

Line-Up:
Tony Frisk - Vocals, Acoustic Guitar (Gormathon)
Stefan Jonsson - Lead Guitar (Gormathon, ex-Morgana Lefay)
Benke Sandberg - Bass
Tony Sandberg - Drums (Gormathon, ex-Incarnated)


Tracklist:
1. Nightmare in the Freezer 03:47
2. Heavy Traction 03:10
3. No Mans Land 03:44
4. Caveman 04:11
5. Murphy's Law 03:56
6. Justify 03:38
7. Master of Metal 02:28
8. The Grave 03:09
9. O.L.D. 05:53

LOG
Exact Audio Copy V0.99 prebeta 5 from 4. May 2009

EAC extraction logfile from 27. February 2013, 19:31

Overload / Difference Of Opinion

Used drive : PIONEER DVD-RW DVR-116D Adapter: 0 ID: 0

Read mode : Secure
Utilize accurate stream : Yes
Defeat audio cache : Yes
Make use of C2 pointers : No

Read offset correction : 96
Overread into Lead-In and Lead-Out : No
Fill up missing offset samples with silence : Yes
Delete leading and trailing silent blocks : No
Null samples used in CRC calculations : Yes
Used interface : Native Win32 interface for Win NT & 2000

Used output format : User Defined Encoder
Selected bitrate : 32 kBit/s
Quality : High
Add ID3 tag : No
Command line compressor : C:\Program Files\Exact Audio Copy\Flac\flac.exe
Additional command line options : -6 -V %s


TOC of the extracted CD

Track | Start | Length | Start sector | End sector
---------------------------------------------------------
1 | 0:00.00 | 3:50.48 | 0 | 17297
2 | 3:50.48 | 3:13.60 | 17298 | 31832
3 | 7:04.33 | 3:46.42 | 31833 | 48824
4 | 10:51.00 | 4:13.45 | 48825 | 67844
5 | 15:04.45 | 4:00.13 | 67845 | 85857
6 | 19:04.58 | 3:39.20 | 85858 | 102302
7 | 22:44.03 | 2:31.15 | 102303 | 113642
8 | 25:15.18 | 3:12.27 | 113643 | 128069
9 | 28:27.45 | 5:52.43 | 128070 | 154512


Range status and errors

Selected range

Filename D:\Музыка\Lossless\Overload - The Difference Of Opinion (1993)\Overload - Difference Of Opinion.wav

Peak level 98.6 %
Range quality 100.0 %
Copy CRC 9DF31BCC
Copy OK

No errors occurred


AccurateRip summary

Track 1 accurately ripped (confidence 1) [A1699E42]
Track 2 accurately ripped (confidence 1) [63D7B34C]
Track 3 accurately ripped (confidence 1) [655F2A76]
Track 4 accurately ripped (confidence 1) [099A97A9]
Track 5 accurately ripped (confidence 1) [7E2D40BB]
Track 6 accurately ripped (confidence 1) [076FF4E2]
Track 7 accurately ripped (confidence 1) [5BA9F131]
Track 8 accurately ripped (confidence 1) [144FC1DF]
Track 9 accurately ripped (confidence 1) [CADADF46]

All tracks accurately ripped

End of status report

CUE
REM GENRE "Heavy Metal"
REM DATE 1993
REM DISCID 6D080C09
REM COMMENT "ExactAudioCopy v0.99pb5"
PERFORMER "Overload"
TITLE "Difference Of Opinion"
FILE "Overload - Difference Of Opinion.flac" WAVE
TRACK 01 AUDIO
TITLE "Nightmare In The Freezer"
PERFORMER "Overload"
INDEX 01 00:00:00
TRACK 02 AUDIO
TITLE "Heavy Traction"
PERFORMER "Overload"
INDEX 00 03:46:63
INDEX 01 03:50:48
TRACK 03 AUDIO
TITLE "No Mans Land"
PERFORMER "Overload"
INDEX 00 07:01:00
INDEX 01 07:04:33
TRACK 04 AUDIO
TITLE "Caveman"
PERFORMER "Overload"
INDEX 00 10:48:65
INDEX 01 10:51:00
TRACK 05 AUDIO
TITLE "Murphys Law"
PERFORMER "Overload"
INDEX 00 15:01:40
INDEX 01 15:04:45
TRACK 06 AUDIO
TITLE "Justify"
PERFORMER "Overload"
INDEX 00 19:00:53
INDEX 01 19:04:58
TRACK 07 AUDIO
TITLE "Master Of Metal"
PERFORMER "Overload"
INDEX 00 22:42:43
INDEX 01 22:44:03
TRACK 08 AUDIO
TITLE "The Grave"
PERFORMER "Overload"
INDEX 00 25:12:33
INDEX 01 25:15:18
TRACK 09 AUDIO
TITLE "O.L.D."
PERFORMER "Overload"
INDEX 00 28:24:43
INDEX 01 28:27:45

Spectrum
Image


Ifolder.Ru

phpBB [youtube]

phpBB [youtube]


Достойный бэнд :true:


Top
 Profile E-mail  
 
 
PostPosted: 02 Mar 2013 
спирт 100%
User avatar
Joined: 22 Sep 2008
Posts: 4123
Age: 46
Name: Саня
Дим ,Спасибо! :thanx:


Top
 Profile  
 
 
PostPosted: 03 Mar 2013 
консэрваторъ
Joined: 11 Aug 2007
Posts: 14259
Lоcаtion: Псков
Age: 43
Name: Сергей
church wrote:
Code:
[youtube]v=R_Ijqjr8YPo[/youtube]
[youtube]v=d8mdRiqrbu0[/youtube]

Гы... :crazy:

_________________
THRASH 'EM ALL


Top
 Profile E-mail  
 
 
PostPosted: 03 Mar 2013 
Работнечег
User avatar
Joined: 28 Aug 2007
Posts: 5000
Lоcаtion: г. Москва
Age: 28
Name: Дима
усё сломалось? :true:


Top
 Profile E-mail  
 
 
PostPosted: 03 Mar 2013 
Хиппей (support team)
User avatar
Joined: 30 Jul 2007
Posts: 95757
Lоcаtion: Киев (Kyiv, UA)
Age: 44
Name: Andrey
Ой, красота :true: :thanx: :thanx:

mirror: MultiUp l Narod

Ссылки подправил на Ютуб... :oops:

_________________


Top
 Profile E-mail  
 
 
PostPosted: 05 Mar 2013 
Хиппей (support team)
User avatar
Joined: 30 Jul 2007
Posts: 95757
Lоcаtion: Киев (Kyiv, UA)
Age: 44
Name: Andrey
Как-то снова я полдня заморачивался с определением стиля этого альбома.... :starz: Позабыв поначалу и сам альбом внимательно послушать, осознать, вникнуть в суть глубин.
Короче, релиз хороший, разнообразный такой, нескучный. А вот стилистика в каждом трэке меняется от харда, хэви до павера и иногда даже трэшевые прогоны проскакивают :true: И вокал ну очень разноплановый и красивый :true: :true:

7-/10

_________________


Top
 Profile E-mail  
 
 
PostPosted: 06 Mar 2013 
ТрэшЭрос
User avatar
Joined: 18 Jul 2011
Posts: 2292
Lоcаtion: Гулькевичи
Age: 42
Name: Александр
:thanx:
Возьму послушать...

_________________
Thrash no trash!!!


Top
 Profile E-mail  
 
 
PostPosted: 21 Dec 2015 
Alive Again
User avatar
Joined: 17 Dec 2008
Posts: 4444
Lоcаtion: Курск Воронеж Оскол
Age: 43
Name: Дмитрий
:thanx:


Top
 Profile E-mail  
 
Display posts from previous:  Sort by  
Post new topic Reply to topic  [ 8 posts ] 

All times are UTC + 3 hours


Who is online

Users browsing this forum: No registered users and 1 guest


You cannot post new topics in this forum
You cannot reply to topics in this forum
You cannot edit your posts in this forum
You cannot delete your posts in this forum
You cannot post attachments in this forum

Search for:
Яндекс.Метрика
Powered by phpBB © 2000, 2002, 2005, 2007 phpBB Group