\m/ 80's metal \m/

Информационно-аналитический форум "80 см пыли" (In Search We Trust) "У нас никто никуда не спешит"
Me For You - http://me-4u.com
It is currently 23 Aug 2019

All times are UTC + 3 hours

Spoiler
Chat - temporary registration for foreign users (please leave your application here)







Post new topic Reply to topic  [ 2 posts ] 
Author Message
 
PostPosted: 24 Jul 2012 
Труъ
User avatar
Joined: 05 Oct 2008
Posts: 194
Lоcаtion: Saint Petersburg
Age: 46
Name: Jesse
Image

ORDER OF NINE - A Means To Know End


Year: 2008
Style: Power Metal
Country: USA (Bethel Park, Pennsylvania)
Label: Nightmare Records [NMR 382]
Format: FLAC+CUE+LOG+SCANS
Size: 302 Mb+5 Mb


TRACK LIST:

1. Single Shot
2. A Means to Know End
3. Devotee
4. In The Know
5. An Offered Hand
6. Ghost Of Memories
7. Gods At War
8. Ninth Knight
9. Show No Remorse
10. Last Dance


Image

Michael DeGrena – Vocals (Invid, Templar)
Scott Haggerty - Lead & Rhythm Guitars
Steve Pollick - Lead & Rhythm Guitars (Icarus Witch)
Tom Donaldson – Bass (ex-Eye, ex-Mercenary, ex-Relic Earth, ex-Futuretense)
J.R. Jameson – Drums ( ex-Bird of Prey, ex-Death Sentence, ex-Futuretense, ex-Mercenary, ex-Icarus Witch, ex-Nunslaughter)


log
Exact Audio Copy V0.99 prebeta 4 from 23. January 2008

Отчёт EAC об извлечении, выполненном 29. июля 2010, 13:53

Order of Nine / A Means to Know End

Дисковод: ASUS CRW-5224A Adapter: 3 ID: 0

Режим чтения : Достоверность
Использование точного потока : Да
Отключение кэша аудио : Да
Использование указателей C2 : Нет

Коррекция смещения при чтении : 6
Способность читать области Lead-in и Lead-out : Нет
Заполнение пропущенных сэмплов тишиной : Да
Удаление блоков с тишиной в начале и конце : Нет
При вычислениях CRC использовались нулевые сэмплы : Да
Интерфейс : Установленный внешний ASPI-интерфейс

Выходной формат : Внутренние WAV-операции
Формат сэмплов : 44.100 Гц; 16 бит; стерео


TOC извлечённого CD

Трек | Старт | Длительность | Начальный сектор | Конечный сектор
---------------------------------------------------------------------
1 | 0:00.00 | 4:21.16 | 0 | 19590
2 | 4:21.16 | 4:28.49 | 19591 | 39739
3 | 8:49.65 | 5:25.38 | 39740 | 64152
4 | 14:15.28 | 3:50.44 | 64153 | 81446
5 | 18:05.72 | 4:47.18 | 81447 | 102989
6 | 22:53.15 | 4:47.33 | 102990 | 124547
7 | 27:40.48 | 4:06.09 | 124548 | 143006
8 | 31:46.57 | 3:21.62 | 143007 | 158143
9 | 35:08.44 | 4:29.07 | 158144 | 178325
10 | 39:37.51 | 3:05.00 | 178326 | 192200


Характеристики диапазона извлечения и сообщения об ошибках

Выбранный диапазон

Имя файла H:CdOrder of Nine - A Means to Know End by Omarao.wav

Пиковый уровень 95.5 %
Качество диапазона 100.0 %
CRC копии 0D1A073D
Копирование... OK

Ошибок не произошло

Конец отчёта


Produced by Bill Korecky

NAROD
password: hpml


Top
 Profile  
 
 
PostPosted: 24 Jul 2012 
Хиппей (support team)
User avatar
Joined: 30 Jul 2007
Posts: 114070
Lоcаtion: Киев (Kyiv, UA)
Age: 46
Name: Andrey
:thanx:

_________________


Top
 Profile E-mail  
 
Display posts from previous:  Sort by  
Post new topic Reply to topic  [ 2 posts ] 

All times are UTC + 3 hours


Who is online

Users browsing this forum: No registered users and 1 guest


You cannot post new topics in this forum
You cannot reply to topics in this forum
You cannot edit your posts in this forum
You cannot delete your posts in this forum
You cannot post attachments in this forum

Search for:
Яндекс.Метрика
Powered by phpBB © 2000, 2002, 2005, 2007 phpBB Group