\m/ 80's metal \m/

Информационно-аналитический форум "80 см пыли" (In Search We Trust) "У нас никто никуда не спешит"
Железнодорожная биржа - RailAgent
It is currently 23 Apr 2018

All times are UTC + 3 hours

Spoiler
Chat - temporary registration for foreign users (please leave your application here)







Post new topic Reply to topic  [ 1 post ] 
Author Message
 
PostPosted: 10 Jan 2018 
Хиппей (support team)
User avatar
Joined: 30 Jul 2007
Posts: 102872
Lоcаtion: Киев (Kyiv, UA)
Age: 44
Name: Andrey
Omnitron - 1990 - Masterpiece [flac]

Image

    1. The Power Line - 03:40
    2. I Am He - 04:15
    3. Triumph of What - 04:25
    4. Torque Limit - 04:49
    5. Eroticon - 05:52
    6. Lucifertility - 05:56
    7. How the Steel Was Tempered - 04:10
    8. Rock Drill / Iron Ration - 05:22
    9. Five in Four - 04:26
    10. The Tension - 04:35
    11. Ace of Spades (Motörhead cover) - 02:07

    TPT: 49:37

Line-up:

Pontus Lindqvist - Bass, Vocals
Stefan Kälfors - Drums, Vocals (backing)
Pelle Ström - Guitars, Vocals (backing)
Rasmus Ekman - Guitars, Vocals (backing)

mirror: Depos l M-Cloud l Narod l Drop

Скачано осликом с ММТ :thanx:

Типа ревьюшка по альбому :arrow: viewtopic.php?f=86&t=4395

log
Exact Audio Copy V0.99 prebeta 5 from 4. May 2009

EAC extraction logfile from 7. August 2010, 18:23

Omnitron / Masterpeace

Used drive : SONY DVD RW DRU-180A Adapter: 3 ID: 0

Read mode : Secure
Utilize accurate stream : Yes
Defeat audio cache : Yes
Make use of C2 pointers : No

Read offset correction : 6
Overread into Lead-In and Lead-Out : No
Fill up missing offset samples with silence : Yes
Delete leading and trailing silent blocks : No
Null samples used in CRC calculations : Yes
Used interface : Native Win32 interface for Win NT & 2000

Used output format : User Defined Encoder
Selected bitrate : 768 kBit/s
Quality : High
Add ID3 tag : No
Command line compressor : C:\Program Files\Exact Audio Copy\FLAC\FLAC.EXE
Additional command line options : -8 -V -T "ARTIST=%a" -T "TITLE=%t" -T "ALBUM=%g" -T "DATE=%y" -T "TRACKNUMBER=%n" -T "GENRE=%m" -T "COMMENT=%e" %s -o %d


TOC of the extracted CD

Track | Start | Length | Start sector | End sector
---------------------------------------------------------
1 | 0:00.00 | 3:39.70 | 0 | 16494
2 | 3:39.70 | 4:15.13 | 16495 | 35632
3 | 7:55.08 | 4:24.70 | 35633 | 55502
4 | 12:20.03 | 4:48.52 | 55503 | 77154
5 | 17:08.55 | 5:52.33 | 77155 | 103587
6 | 23:01.13 | 5:56.20 | 103588 | 130307
7 | 28:57.33 | 4:09.60 | 130308 | 149042
8 | 33:07.18 | 5:22.37 | 149043 | 173229
9 | 38:29.55 | 4:25.68 | 173230 | 193172
10 | 42:55.48 | 4:35.10 | 193173 | 213807
11 | 47:30.58 | 2:08.05 | 213808 | 223412


Range status and errors

Selected range

Filename C:\EAC\Omnitron\1990 Masterpiece [CBR 123]\Omnitron - Masterpeace.wav

Peak level 99.9 %
Range quality 99.9 %
Test CRC B0792C3E
Copy CRC B0792C3E
Copy OK

No errors occurred


AccurateRip summary

Track 1 accurately ripped (confidence 4) [265E5045]
Track 2 accurately ripped (confidence 4) [21A31DAA]
Track 3 accurately ripped (confidence 4) [3ACDC426]
Track 4 accurately ripped (confidence 4) [7381FFBB]
Track 5 accurately ripped (confidence 4) [D1201645]
Track 6 accurately ripped (confidence 4) [5D2BFFDD]
Track 7 accurately ripped (confidence 4) [23D7E883]
Track 8 accurately ripped (confidence 4) [C0276602]
Track 9 accurately ripped (confidence 4) [6EA351D7]
Track 10 accurately ripped (confidence 4) [1E76CE45]
Track 11 accurately ripped (confidence 4) [415E8E8F]

All tracks accurately ripped

End of status report

cue
REM DATE 1990
REM DISCID 950BA20B
REM COMMENT "ExactAudioCopy v0.99pb5"
PERFORMER "Omnitron"
TITLE "Masterpeace"
FILE "Omnitron - Masterpeace.flac" WAVE
TRACK 01 AUDIO
TITLE "The Power Line"
PERFORMER "Omnitron"
INDEX 01 00:00:00
TRACK 02 AUDIO
TITLE "I Am He"
PERFORMER "Omnitron"
INDEX 00 03:38:13
INDEX 01 03:39:70
TRACK 03 AUDIO
TITLE "Triumph of What"
PERFORMER "Omnitron"
INDEX 00 07:54:38
INDEX 01 07:55:08
TRACK 04 AUDIO
TITLE "Torque Limit"
PERFORMER "Omnitron"
INDEX 00 12:18:30
INDEX 01 12:20:03
TRACK 05 AUDIO
TITLE "Eroticon"
PERFORMER "Omnitron"
INDEX 00 17:07:48
INDEX 01 17:08:55
TRACK 06 AUDIO
TITLE "Lucifertility"
PERFORMER "Omnitron"
INDEX 00 22:59:60
INDEX 01 23:01:13
TRACK 07 AUDIO
TITLE "How the Steel Was Tempered"
PERFORMER "Omnitron"
INDEX 00 28:55:65
INDEX 01 28:57:33
TRACK 08 AUDIO
TITLE "Rock Drill / Iron Ration"
PERFORMER "Omnitron"
INDEX 00 33:06:10
INDEX 01 33:07:18
TRACK 09 AUDIO
TITLE "Five in Four"
PERFORMER "Omnitron"
INDEX 00 38:27:20
INDEX 01 38:29:55
TRACK 10 AUDIO
TITLE "The Tension Disease"
PERFORMER "Omnitron"
INDEX 00 42:53:43
INDEX 01 42:55:48
TRACK 11 AUDIO
TITLE "Ace of Spades"
PERFORMER "Omnitron"
INDEX 00 47:27:43
INDEX 01 47:30:58

_________________


Top
 Profile E-mail  
 
Display posts from previous:  Sort by  
Post new topic Reply to topic  [ 1 post ] 

All times are UTC + 3 hours


Who is online

Users browsing this forum: No registered users and 1 guest


You cannot post new topics in this forum
You cannot reply to topics in this forum
You cannot edit your posts in this forum
You cannot delete your posts in this forum
You cannot post attachments in this forum

Search for:
Яндекс.Метрика
Powered by phpBB © 2000, 2002, 2005, 2007 phpBB Group