\m/ 80's metal \m/

Информационно-аналитический форум "80 см пыли" (In Search We Trust) "У нас никто никуда не спешит"
Железнодорожная биржа - RailAgent
It is currently 16 Dec 2017

All times are UTC + 3 hours

Spoiler
Chat - temporary registration for foreign users (please leave your application here)







Post new topic Reply to topic  [ 61 posts ]  Go to page 1, 2, 3, 4  Next
Author Message
 
PostPosted: 21 Feb 2011 
Я набрал 1000 сообщений!
Joined: 24 Oct 2009
Posts: 1784
Lоcаtion: Оренбург
Age: 54
Name: Юра
Прошу помощи, уже давно ищу.

The Now-Overnight Stay
Image

Год: 1989
Стиль: Hard Rock
Страна: UK




Rue Philips - guitars, vocals(Smokin' Roadie, Bill Ward, Tempest(UK))
Lee Faulkner – bass(Smokin' Roadie, Bill Ward, Tempest(UK))
Malcolm Bruce - keyboard, guitar(Bill Ward)
Kaulfi Baker – drums

Треклист:

01. Cheating
02. Tempest
03. Mamas Calling
04. Dream On
05. Hell Fire
06. O'Shyte
07. Overnight Stay
08. All In A Dream
09. Born Into Rock 'N' Roll
10. So What
11. Remember
12. I Heard It Through The Grapevine

_________________
:dash: I am happy!


Top
 Profile E-mail  
 
 
PostPosted: 21 Feb 2011 
хард н хэвщик (support team)
User avatar
Joined: 02 Jun 2008
Posts: 16879
Lоcаtion: Н.Новгород
Age: 30
Name: Артем
999 юаней http://item.taobao.com/item.htm?id=7268065597 :umnik:


Top
 Profile  
 
 
PostPosted: 22 Feb 2011 
Персональный статус
Joined: 02 Apr 2010
Posts: 223
Name: Андрей
999 юаней. (4 434 рубля) :nunu: :crazy:


Top
 Profile  
 
 
PostPosted: 22 Feb 2011 
Я набрал 1000 сообщений!
Joined: 24 Oct 2009
Posts: 1784
Lоcаtion: Оренбург
Age: 54
Name: Юра
Да уж.... :umnik: Не думал я что так... То-то его не видно нигде. :pardon:

_________________
:dash: I am happy!


Top
 Profile E-mail  
 
 
PostPosted: 15 Mar 2011 
Я набрал 1000 сообщений!
Joined: 24 Oct 2009
Posts: 1784
Lоcаtion: Оренбург
Age: 54
Name: Юра
Хм... Похоже сели в лужу!!! :nunu:

_________________
:dash: I am happy!


Top
 Profile E-mail  
 
 
PostPosted: 06 Apr 2011 
Я набрал 1000 сообщений!
Joined: 24 Oct 2009
Posts: 1784
Lоcаtion: Оренбург
Age: 54
Name: Юра
ЭЭЭЭх... Ёк-Макарёк... :wanna:

_________________
:dash: I am happy!


Top
 Profile E-mail  
 
 
PostPosted: 06 Apr 2011 
хард н хэвщик (support team)
User avatar
Joined: 02 Jun 2008
Posts: 16879
Lоcаtion: Н.Новгород
Age: 30
Name: Артем
cammard wrote:
999 юаней. (4 434 рубля) :nunu: :crazy:

не, ну есть же и подешевле :crazy: 47$


Top
 Profile  
 
 
PostPosted: 19 May 2011 
Я набрал 1000 сообщений!
Joined: 24 Oct 2009
Posts: 1784
Lоcаtion: Оренбург
Age: 54
Name: Юра
Уже нет... :vic:

_________________
:dash: I am happy!


Top
 Profile E-mail  
 
 
PostPosted: 19 May 2011 
Хиппей (support team)
User avatar
Joined: 30 Jul 2007
Posts: 97141
Lоcаtion: Киев (Kyiv, UA)
Age: 44
Name: Andrey
Есть http://cgi.ebay.com/Now-Overnight-Stay- ... 167wt_1140
:oops:

_________________


Top
 Profile E-mail  
 
 
PostPosted: 20 May 2011 
Я набрал 1000 сообщений!
Joined: 24 Oct 2009
Posts: 1784
Lоcаtion: Оренбург
Age: 54
Name: Юра
Объясни если не трудно что и как там делать. :vic:
P.S. Всё время прусь от твоей аватарки :haha:

_________________
:dash: I am happy!


Top
 Profile E-mail  
 
 
PostPosted: 24 May 2011 
Хиппей (support team)
User avatar
Joined: 30 Jul 2007
Posts: 97141
Lоcаtion: Киев (Kyiv, UA)
Age: 44
Name: Andrey
uriyy wrote:
что и как там делать

http://olyapka.ru/2009/10/kak-pokupat-na-ebay :pardon:
Или у нас на форуме можно задать вопросы тем, кто часто покупает или продает на этом онлайн-аукционе что-то...
:arrow: viewtopic.php?f=25&t=4318 :rabo:

_________________


Top
 Profile E-mail  
 
 
PostPosted: 25 May 2011 
Я набрал 1000 сообщений!
Joined: 24 Oct 2009
Posts: 1784
Lоcаtion: Оренбург
Age: 54
Name: Юра
Scatterbrain wrote:
uriyy wrote:
что и как там делать

http://olyapka.ru/2009/10/kak-pokupat-na-ebay :pardon:
Или у нас на форуме можно задать вопросы тем, кто часто покупает или продает на этом онлайн-аукционе что-то...
:arrow: viewtopic.php?f=25&t=4318 :rabo:

Спасибо! :thanx:

_________________
:dash: I am happy!


Top
 Profile E-mail  
 
 
PostPosted: 25 May 2011 
Хиппей (support team)
User avatar
Joined: 30 Jul 2007
Posts: 97141
Lоcаtion: Киев (Kyiv, UA)
Age: 44
Name: Andrey
Во благо бы :dance:

_________________


Top
 Profile E-mail  
 
 
PostPosted: 10 Mar 2013 
Работнечег
User avatar
Joined: 28 Aug 2007
Posts: 5022
Lоcаtion: г. Москва
Age: 28
Name: Дима
Image

Year: 1989
Label: Teichiku Records, #28DN-26
Country: UK
Style: Hard Rock
Format: Flac+Cue+Log+Covers/Mp3@320
Size: 315 Mb/ 105 Mb

Tracklist:
01. Cheating
02. Tempest
03. Mamas Calling
04. Dream On
05. Hell Fire
06. O'Shyte
07. Overnight Stay
08. All In A Dream
09. Born Into Rock 'N' Roll
10. So What
11. Remember
12. I Heard It Through The Grapevine

LOG
Exact Audio Copy V0.99 prebeta 5 from 4. May 2009

EAC extraction logfile from 2. February 2013, 17:00

The Now / Overnight Stay

Used drive : PIONEER DVD-RW DVR-116D Adapter: 0 ID: 0

Read mode : Secure
Utilize accurate stream : Yes
Defeat audio cache : Yes
Make use of C2 pointers : No

Read offset correction : 96
Overread into Lead-In and Lead-Out : No
Fill up missing offset samples with silence : Yes
Delete leading and trailing silent blocks : No
Null samples used in CRC calculations : Yes
Used interface : Native Win32 interface for Win NT & 2000

Used output format : User Defined Encoder
Selected bitrate : 32 kBit/s
Quality : High
Add ID3 tag : No
Command line compressor : C:\Program Files\Exact Audio Copy\Flac\flac.exe
Additional command line options : -6 -V %s


TOC of the extracted CD

Track | Start | Length | Start sector | End sector
---------------------------------------------------------
1 | 0:00.37 | 3:57.58 | 37 | 17869
2 | 3:58.20 | 4:35.70 | 17870 | 38564
3 | 8:34.15 | 3:46.72 | 38565 | 55586
4 | 12:21.12 | 4:12.33 | 55587 | 74519
5 | 16:33.45 | 3:19.15 | 74520 | 89459
6 | 19:52.60 | 2:27.15 | 89460 | 100499
7 | 22:20.00 | 3:52.07 | 100500 | 117906
8 | 26:12.07 | 4:10.10 | 117907 | 136666
9 | 30:22.17 | 3:52.60 | 136667 | 154126
10 | 34:15.02 | 4:41.03 | 154127 | 175204
11 | 38:56.05 | 3:26.60 | 175205 | 190714
12 | 42:22.65 | 3:33.27 | 190715 | 206716


Range status and errors

Selected range

Filename D:\Музыка\Lossless\The Now - Overnight Stay\The Now - Overnight Stay.wav

Peak level 100.0 %
Range quality 100.0 %
Copy CRC D956D784
Copy OK

No errors occurred


AccurateRip summary

Track 1 accurately ripped (confidence 1) [F73E48E7]
Track 2 accurately ripped (confidence 1) [4742563B]
Track 3 accurately ripped (confidence 1) [DF303591]
Track 4 accurately ripped (confidence 1) [51FC1B03]
Track 5 accurately ripped (confidence 1) [0BF1B3FE]
Track 6 accurately ripped (confidence 1) [10AFB1F2]
Track 7 accurately ripped (confidence 1) [9F56A479]
Track 8 accurately ripped (confidence 1) [C3E25684]
Track 9 accurately ripped (confidence 1) [DE66B722]
Track 10 accurately ripped (confidence 1) [C5CD30BE]
Track 11 accurately ripped (confidence 1) [00AB7986]
Track 12 accurately ripped (confidence 1) [67F0E34D]

All tracks accurately ripped

End of status report

CUE
REM GENRE "Hard Rock"
REM DATE 1989
REM DISCID 9F0AC40C
REM COMMENT "ExactAudioCopy v0.99pb5"
PERFORMER "The Now"
TITLE "Overnight Stay"
FILE "The Now - Overnight Stay.flac" WAVE
TRACK 01 AUDIO
TITLE "Cheating"
PERFORMER "The Now"
INDEX 00 00:00:00
INDEX 01 00:00:37
TRACK 02 AUDIO
TITLE "Tempest"
PERFORMER "The Now"
INDEX 00 03:57:03
INDEX 01 03:58:20
TRACK 03 AUDIO
TITLE "Mamas Calling"
PERFORMER "The Now"
INDEX 01 08:34:15
TRACK 04 AUDIO
TITLE "Dream On"
PERFORMER "The Now"
INDEX 01 12:21:12
TRACK 05 AUDIO
TITLE "Hell Fire"
PERFORMER "The Now"
INDEX 00 16:32:15
INDEX 01 16:33:45
TRACK 06 AUDIO
TITLE "O'Shyte"
PERFORMER "The Now"
INDEX 01 19:52:60
TRACK 07 AUDIO
TITLE "Overnight Stay"
PERFORMER "The Now"
INDEX 00 22:17:69
INDEX 01 22:20:00
TRACK 08 AUDIO
TITLE "All In A Dream"
PERFORMER "The Now"
INDEX 00 26:10:49
INDEX 01 26:12:07
TRACK 09 AUDIO
TITLE "Born Into Rock'N' Roll"
PERFORMER "The Now"
INDEX 01 30:22:17
TRACK 10 AUDIO
TITLE "So What"
PERFORMER "The Now"
INDEX 01 34:15:02
TRACK 11 AUDIO
TITLE "Remember"
PERFORMER "The Now"
INDEX 01 38:56:05
TRACK 12 AUDIO
TITLE "I Heard It Through The Grapevine"
PERFORMER "The Now"
INDEX 00 42:21:44
INDEX 01 42:22:65


FLAC
MP3@320

phpBB [youtube]


За предоставленный диск, говорим спасибо Юре! :thanx: Очень хороший хард, местами правда может немного мягковатый, но вообще альбом рекомендуется к прослушиванию)


Top
 Profile E-mail  
 
 
PostPosted: 10 Mar 2013 
Персональный статус
User avatar
Joined: 02 Jul 2009
Posts: 291
Name: Александр
Спасибо огромное !!!!!!!!! :thanx: :thanx: :thanx: Шикарный альбом . :true:


Top
 Profile E-mail  
 
 
PostPosted: 10 Mar 2013 
Персональный статус
Joined: 02 Apr 2010
Posts: 223
Name: Андрей
Неплохой альбом - лосик определённо пригодится. Спасибо! :thanx:


Top
 Profile  
 
 
PostPosted: 11 Mar 2013 
Хиппей (support team)
User avatar
Joined: 30 Jul 2007
Posts: 97141
Lоcаtion: Киев (Kyiv, UA)
Age: 44
Name: Andrey
Димка, спасибо! :true:

mirror: MultiUp l Narod

_________________


Top
 Profile E-mail  
 
 
PostPosted: 11 Mar 2013 
Хиппей (support team)
User avatar
Joined: 30 Jul 2007
Posts: 97141
Lоcаtion: Киев (Kyiv, UA)
Age: 44
Name: Andrey
Альбом действительно шикарный :shok: :true: :true: :true:
Вроде обычный хард-рок, а сколько в нём эпох - 80-е, 90-е и... основа - 70-е :dance: И звучит всё ну очень гармонично.

9+/10

В общем, слушаем, а затем смотрим состав группы-проекта.

_________________


Top
 Profile E-mail  
 
 
PostPosted: 11 Mar 2013 
Old Time Rock`n`Roll
User avatar
Joined: 23 Jun 2008
Posts: 3318
Lоcаtion: г.Ульяновск
Age: 39
Name: Константин
Спасибо :thanx:
Еще не слушал, но уже одобряю :true:


Top
 Profile  
 
 
PostPosted: 11 Mar 2013 
Хиппей (support team)
User avatar
Joined: 30 Jul 2007
Posts: 97141
Lоcаtion: Киев (Kyiv, UA)
Age: 44
Name: Andrey
Костя, ну тебе точно понравится альбом :true:

Ждём-с развёртнутый обзор, просим, просим :thanx:

_________________


Top
 Profile E-mail  
 
Display posts from previous:  Sort by  
Post new topic Reply to topic  [ 61 posts ]  Go to page 1, 2, 3, 4  Next

All times are UTC + 3 hours


Who is online

Users browsing this forum: No registered users and 1 guest


You cannot post new topics in this forum
You cannot reply to topics in this forum
You cannot edit your posts in this forum
You cannot delete your posts in this forum
You cannot post attachments in this forum

Search for:
Яндекс.Метрика
Powered by phpBB © 2000, 2002, 2005, 2007 phpBB Group