\m/ 80's metal \m/

Информационно-аналитический форум "80 см пыли" (In Search We Trust) "У нас никто никуда не спешит"
Железнодорожная биржа - RailAgent
It is currently 13 Dec 2017

All times are UTC + 3 hours

Spoiler
Chat - temporary registration for foreign users (please leave your application here)







Post new topic Reply to topic  [ 14 posts ] 
Author Message
 
PostPosted: 28 Mar 2010 
хард н хэвщик (support team)
User avatar
Joined: 02 Jun 2008
Posts: 16879
Lоcаtion: Н.Новгород
Age: 30
Name: Артем
Image

Niagara - 1988 - Now or Never

Жанр: melodic hard rock
Год выпуска диска: 1988
Производитель диска: Испания
Формат: APE+CUE , лога и ковриков нет
Продолжительность: 35:07

Трэклист:
1. Fallen Angel
2. Walking
3. I Will Be There
4. Take My Hand
5. Now Or Never
6. I Should Be Stronger
7. No Conversation
8. You Belong To Me
9. Secret Lover
10. Live On The Line

Tony Cuervas vocals
V.M Arias guitars, vocals
Enrique Castaneda keyboards, vocals
Angel Arias Bass, vocals
Jose Martos drums, vocals

Обложки проверьте на Coverparadise. Если их там нет, то попробую достать.

http://st.ifolder.ru/17019399


Top
 Profile  
 
 
PostPosted: 28 Mar 2010 
Old Time Rock`n`Roll
User avatar
Joined: 23 Jun 2008
Posts: 3318
Lоcаtion: г.Ульяновск
Age: 39
Name: Константин
Скачивал с ММТ, там есть пара сканов, залью


Top
 Profile  
 
 
PostPosted: 29 Mar 2010 
Почётный металлург
User avatar
Joined: 15 Sep 2007
Posts: 4357
Lоcаtion: Хабаровск
Age: 57
Name: чуть выше
Спасибо, ознакомлюсь! Облоги (front, back) есть на Парадайзе.

_________________
Коль будешь людей ты ослами честить,
тебе человеком меж них не прослыть!
(Саади, персидский поэт, 13в.)


Top
 Profile  
 
 
PostPosted: 29 Mar 2010 
А может смените мне статус?..
Joined: 03 Jul 2009
Posts: 704
Lоcаtion: Serbia
Name: Laki
Great share. Thanks :thanx:


Top
 Profile E-mail  
 
 
PostPosted: 04 Apr 2010 
А может смените мне статус?..
Joined: 03 Jul 2009
Posts: 704
Lоcаtion: Serbia
Name: Laki
oldrocker wrote:
Скачивал с ММТ, там есть пара сканов, залью



Can you post remastered version from MMT, if you have, please ?


Top
 Profile E-mail  
 
 
PostPosted: 04 Apr 2010 
Old Time Rock`n`Roll
User avatar
Joined: 23 Jun 2008
Posts: 3318
Lоcаtion: г.Ульяновск
Age: 39
Name: Константин
glory11
I`ll try it. Promise, do my best))


Top
 Profile  
 
 
PostPosted: 04 Apr 2010 
Хиппей (support team)
User avatar
Joined: 30 Jul 2007
Posts: 96973
Lоcаtion: Киев (Kyiv, UA)
Age: 44
Name: Andrey
McKagan wrote:
http://st.ifolder.ru

Артём, а чей это поддомен?

_________________


Top
 Profile E-mail  
 
 
PostPosted: 04 Apr 2010 
хард н хэвщик (support team)
User avatar
Joined: 02 Jun 2008
Posts: 16879
Lоcаtion: Н.Новгород
Age: 30
Name: Артем
ничей, я просто использую разную абракадабру (st, fff и др.) перед ifolder.ru, чтобы избавиться от лишней флеш-рекламы


Top
 Profile  
 
 
PostPosted: 04 Apr 2010 
Хиппей (support team)
User avatar
Joined: 30 Jul 2007
Posts: 96973
Lоcаtion: Киев (Kyiv, UA)
Age: 44
Name: Andrey
:shok:
Ты серьезно хочешь сказать, что так меньше рекламы, чем на самом фолдыре?

_________________


Top
 Profile E-mail  
 
 
PostPosted: 04 Apr 2010 
хард н хэвщик (support team)
User avatar
Joined: 02 Jun 2008
Posts: 16879
Lоcаtion: Н.Новгород
Age: 30
Name: Артем
да. ну сам проверь ;)
хотя, после трехдневного перерыва не ручаюсь... администрация фолдыря предупреждала, что сняла 70% рекламы, и возможно, сейчас разницы не увидишь...


Top
 Profile  
 
 
PostPosted: 05 Apr 2010 
А может смените мне статус?..
Joined: 03 Jul 2009
Posts: 704
Lоcаtion: Serbia
Name: Laki
oldrocker wrote:
glory11
I`ll try it. Promise, do my best))



Thanks mate, I appreciate it


Top
 Profile E-mail  
 
 
PostPosted: 06 Apr 2010 
Old Time Rock`n`Roll
User avatar
Joined: 23 Jun 2008
Posts: 3318
Lоcаtion: г.Ульяновск
Age: 39
Name: Константин
Ремастированный рип с ММТ, автор - Moudeth

Log
EAC extraction logfile from 6. January 2004, 19:41 for CD
Unknown Artist / Unknown Title

Used drive : TOSHIBA DVD-ROM SD-M1612 Adapter: 2 ID: 0
Read mode : Secure with NO C2, accurate stream, disable cache
Read offset correction : 0
Overread into Lead-In and Lead-Out : No

Used output format : C:\Archivos de programa\EAC\MAC.exe (Monkey's Audio Lossless Encoder)
High Lossless Compression

Other options :
Fill up missing offset samples with silence : Yes
Delete leading and trailing silent blocks : No
Native Win32 interface for Win NT & 2000


Range status and errors
Selected range
Filename C:\Archivos de programa\EAC\NIAGARA - Now Or Never\NIAGARA-NOW OR NEVER.wav

Peak level 98.5 %
Range quality 99.9 %
CRC 04C44D2F
Copy OK

No errors occured

End of status report


Cue
PERFORMER "Unknown Artist"
TITLE "Unknown Title"
FILE "NIAGARA-NOW OR NEVER.ape" WAVE
TRACK 01 AUDIO
TITLE "Track01"
PERFORMER "Unknown Artist"
INDEX 00 00:00:00
INDEX 01 00:00:32
TRACK 02 AUDIO
TITLE "Track02"
PERFORMER "Unknown Artist"
INDEX 01 00:46:40
TRACK 03 AUDIO
TITLE "Track03"
PERFORMER "Unknown Artist"
INDEX 00 05:11:70
INDEX 01 05:15:70
TRACK 04 AUDIO
TITLE "Track04"
PERFORMER "Unknown Artist"
INDEX 00 08:59:43
INDEX 01 09:01:42
TRACK 05 AUDIO
TITLE "Track05"
PERFORMER "Unknown Artist"
INDEX 00 14:45:15
INDEX 01 14:48:15
TRACK 06 AUDIO
TITLE "Track06"
PERFORMER "Unknown Artist"
INDEX 00 19:26:45
INDEX 01 19:28:45
TRACK 07 AUDIO
TITLE "Track07"
PERFORMER "Unknown Artist"
INDEX 00 23:39:13
INDEX 01 23:41:12
TRACK 08 AUDIO
TITLE "Track08"
PERFORMER "Unknown Artist"
INDEX 00 27:34:70
INDEX 01 27:36:70
TRACK 09 AUDIO
TITLE "Track09"
PERFORMER "Unknown Artist"
INDEX 00 31:22:60
INDEX 01 31:24:60
TRACK 10 AUDIO
TITLE "Track10"
PERFORMER "Unknown Artist"
INDEX 00 35:09:73
INDEX 01 35:11:72


APE
megaupload-APE
narod-APE


Top
 Profile  
 
 
PostPosted: 07 Apr 2010 
А может смените мне статус?..
Joined: 03 Jul 2009
Posts: 704
Lоcаtion: Serbia
Name: Laki
Thank you very much oldrocker!!!!!!!!!!!!!!!!!!!!!! :thanx: :thanx: :thanx:


Top
 Profile E-mail  
 
 
PostPosted: 10 Jun 2016 
А может смените мне статус?..
User avatar
Joined: 22 Nov 2008
Posts: 958
Lоcаtion: Schelcovo,Russia
Age: 46
Name: Сергей
Купил винил,как то глуховато звучит.А компакт кто нибудь слушал?


Top
 Profile  
 
Display posts from previous:  Sort by  
Post new topic Reply to topic  [ 14 posts ] 

All times are UTC + 3 hours


Who is online

Users browsing this forum: No registered users and 1 guest


You cannot post new topics in this forum
You cannot reply to topics in this forum
You cannot edit your posts in this forum
You cannot delete your posts in this forum
You cannot post attachments in this forum

Search for:
Яндекс.Метрика
Powered by phpBB © 2000, 2002, 2005, 2007 phpBB Group