\m/ 80's metal \m/

Информационно-аналитический форум "80 см пыли" (In Search We Trust) "У нас никто никуда не спешит"
Железнодорожная биржа - RailAgent
It is currently 13 Dec 2017

All times are UTC + 3 hours

Spoiler
Chat - temporary registration for foreign users (please leave your application here)







Post new topic Reply to topic  [ 3 posts ] 
Author Message
 
PostPosted: 22 Nov 2009 
Power Metal Maniac
User avatar
Joined: 09 Aug 2008
Posts: 5921
Lоcаtion: Москва
Age: 39
Name: Егор
Not Fragile - 21st Century Ballroom

Image

Style: Power/Speed Metal
Year: 2001
Country: Germany
Codec: FLAC+tracks+cue+scans
Total time: 43:05
Tracklist:
1. 21st Century Ballroom 03:39
2. Lost in the Rain 04:17
3. Into the Hurricane 04:10
4. Like Guardians 03:46
5. Monsters of Metal 03:38
6. Starlight to the Revolution 03:10
7. Dreamflight 04:01
8. Lay it Down 04:46
9. New Generation 03:44
10. We Don't Surrender 03:22
11. Somebody's Waiting 04:32


Line-up :
Torsten Buczko: vocals , guitar
Marc Trinkhaus: guitar
Didy Mackel: bass
Markus Köhn: drums


Отчет EAC:
Exact Audio Copy V0.99 prebeta 4 from 23. January 2008

EAC extraction logfile from 22. November 2009, 18:45

Not Fragile / 21st Century Ballroom

Used drive : TEAC DV-W516GB Adapter: 0 ID: 2

Read mode : Secure
Utilize accurate stream : Yes
Defeat audio cache : Yes
Make use of C2 pointers : No

Read offset correction : 12
Overread into Lead-In and Lead-Out : No
Fill up missing offset samples with silence : Yes
Delete leading and trailing silent blocks : No
Null samples used in CRC calculations : Yes
Used interface : Native Win32 interface for Win NT & 2000
Gap handling : Not detected, thus appended to previous track

Used output format : Internal WAV Routines
Sample format : 44.100 Hz; 16 Bit; Stereo

TOC of the extracted CD

Track | Start | Length | Start sector | End sector
---------------------------------------------------------
1 | 0:00.00 | 3:39.35 | 0 | 16459
2 | 3:39.35 | 4:17.60 | 16460 | 35794
3 | 7:57.20 | 4:10.67 | 35795 | 54611
4 | 12:08.12 | 3:46.62 | 54612 | 71623
5 | 15:54.74 | 3:38.37 | 71624 | 88010
6 | 19:33.36 | 3:10.17 | 88011 | 102277
7 | 22:43.53 | 4:01.37 | 102278 | 120389
8 | 26:45.15 | 4:46.47 | 120390 | 141886
9 | 31:31.62 | 3:44.33 | 141887 | 158719
10 | 35:16.20 | 3:22.51 | 158720 | 173920
11 | 38:38.71 | 4:32.16 | 173921 | 194336

Track 1

Filename I:\torrents\Not Fragile 2001 - 21st Century Ballroom\01-21st Century Ballroom.wav

Peak level 98.5 %
Track quality 99.9 %
Copy CRC E1B40E31
Copy OK

Track 2

Filename I:\torrents\Not Fragile 2001 - 21st Century Ballroom\02-Lost In The Rain.wav

Peak level 98.5 %
Track quality 100.0 %
Copy CRC 12866762
Copy OK

Track 3

Filename I:\torrents\Not Fragile 2001 - 21st Century Ballroom\03-Into The Hurricane.wav

Peak level 98.5 %
Track quality 100.0 %
Copy CRC 0891838B
Copy OK

Track 4

Filename I:\torrents\Not Fragile 2001 - 21st Century Ballroom\04-Like Guardians.wav

Peak level 98.5 %
Track quality 100.0 %
Copy CRC 03190503
Copy OK

Track 5

Filename I:\torrents\Not Fragile 2001 - 21st Century Ballroom\05-Monsters Of Metal.wav

Peak level 98.5 %
Track quality 99.9 %
Copy CRC 55FDB13C
Copy OK

Track 6

Filename I:\torrents\Not Fragile 2001 - 21st Century Ballroom\06-Starlight To The Revolution.wav

Peak level 98.5 %
Track quality 100.0 %
Copy CRC 8F03A8A9
Copy OK

Track 7

Filename I:\torrents\Not Fragile 2001 - 21st Century Ballroom\07-Dreamflight.wav

Peak level 98.5 %
Track quality 100.0 %
Copy CRC 9BD73774
Copy OK

Track 8

Filename I:\torrents\Not Fragile 2001 - 21st Century Ballroom\08-Lay It Down.wav

Peak level 98.5 %
Track quality 100.0 %
Copy CRC 6DFEFAFB
Copy OK

Track 9

Filename I:\torrents\Not Fragile 2001 - 21st Century Ballroom\09-New Generation.wav

Peak level 98.5 %
Track quality 99.9 %
Copy CRC 5E45918E
Copy OK

Track 10

Filename I:\torrents\Not Fragile 2001 - 21st Century Ballroom\10-We Don't Surrender.wav

Peak level 98.5 %
Track quality 100.0 %
Copy CRC 14E00F69
Copy OK

Track 11

Filename I:\torrents\Not Fragile 2001 - 21st Century Ballroom\11-Somebody's Waiting.wav

Peak level 98.5 %
Track quality 100.0 %
Copy CRC BEBBE7B9
Copy OK

No errors occurred

End of status report


Народ, 324 Mb

_________________
Long Live Metal!


Top
 Profile  
 
 
PostPosted: 22 Nov 2009 
А может смените мне статус?..
User avatar
Joined: 24 Dec 2008
Posts: 556
Age: 43
Name: Дмитрий
Спасибо! :thanx:


Top
 Profile  
 
 
PostPosted: 23 Nov 2009 
Персональный статус
User avatar
Joined: 02 Feb 2009
Posts: 236
Lоcаtion: Тульская область
Age: 51
Name: Владимир
Спасибо Егор за качество! :thanx: :meloman:

_________________
http://img254.imageshack.us/img254/1015 ... 743574.gif
http://img140.imageshack.us/img140/7192 ... arlogo.jpg


Top
 Profile  
 
Display posts from previous:  Sort by  
Post new topic Reply to topic  [ 3 posts ] 

All times are UTC + 3 hours


Who is online

Users browsing this forum: No registered users and 1 guest


You cannot post new topics in this forum
You cannot reply to topics in this forum
You cannot edit your posts in this forum
You cannot delete your posts in this forum
You cannot post attachments in this forum

Search for:
Яндекс.Метрика
Powered by phpBB © 2000, 2002, 2005, 2007 phpBB Group