\m/ 80's metal \m/

Информационно-аналитический форум "80 см пыли" (In Search We Trust) "У нас никто никуда не спешит"
Железнодорожная биржа - RailAgent
It is currently 13 Dec 2017

All times are UTC + 3 hours

Spoiler
Chat - temporary registration for foreign users (please leave your application here)







Post new topic Reply to topic  [ 28 posts ]  Go to page Previous  1, 2
Author Message
 
PostPosted: 25 May 2009 
udo
User avatar
Joined: 01 Mar 2008
Posts: 2343
Lоcаtion: Краснодар
Age: 47
Name: РОМАН
Ninja - Forgotten Shadows

Image

Image
<Year:> 1987
<Style:> heavy
<Country:> usa
<Format:> ape + cue
<Size:> 209 mb
<Line-Up:>
Danny Stanton: Lead vocals
Arty Price: Guitars
Bruce Cythe: Guitars
James Kelly: Bass
Tony Fortunato: Drums


<Tracklist:>
1. Return Of The Ninja 03:53
2. Machine Gun Love 02:55
3. L.A. Or Bust 03:51
4. Forgotten Shadows 05:01
5. Come Along With Us 03:33
6. All Beat Out 03:49
7. Psalm Zero 02:23
8. Saturday Night 04:28

Total playing time 29:53

Ссылки ниже...

cue
PERFORMER "Ninja"
TITLE "Forgotten Shadows"
FILE "Ninja - 1987 - Forgotten Shadows.ape" WAVE
TRACK 01 AUDIO
TITLE "Return Of The Ninja"
PERFORMER "Ninja"
INDEX 00 00:00:00
INDEX 01 00:02:00
TRACK 02 AUDIO
TITLE "Machine Gun Love"
PERFORMER "Ninja"
INDEX 01 04:00:62
TRACK 03 AUDIO
TITLE "L.A. Or Bust"
PERFORMER "Ninja"
INDEX 01 07:02:01
TRACK 04 AUDIO
TITLE "Forgotten Shadows"
PERFORMER "Ninja"
INDEX 01 10:58:57
TRACK 05 AUDIO
TITLE "Come Along With Us"
PERFORMER "Ninja"
INDEX 01 16:02:32
TRACK 06 AUDIO
TITLE "All Bent Out"
PERFORMER "Ninja"
INDEX 01 19:38:32
TRACK 07 AUDIO
TITLE "Psalm Zero"
PERFORMER "Ninja"
INDEX 01 23:35:02
TRACK 08 AUDIO
TITLE "Saturday Night"
PERFORMER "Ninja"
INDEX 01 26:05:12


Top
 Profile E-mail  
 
 
PostPosted: 23 May 2010 
Power Metal Maniac
User avatar
Joined: 09 Aug 2008
Posts: 5921
Lоcаtion: Москва
Age: 39
Name: Егор
:thanx:

_________________
Long Live Metal!


Top
 Profile  
 
 
PostPosted: 22 Aug 2011 
Хиппей (support team)
User avatar
Joined: 30 Jul 2007
Posts: 96973
Lоcаtion: Киев (Kyiv, UA)
Age: 44
Name: Andrey
mirror: MultiUp l Narod

_________________


Top
 Profile E-mail  
 
 
PostPosted: 22 Aug 2011 
Хиппей (support team)
User avatar
Joined: 30 Jul 2007
Posts: 96973
Lоcаtion: Киев (Kyiv, UA)
Age: 44
Name: Andrey
Отслушал альбом. Ну, глэм, как глэм. Весёленький, подростковый :dance:
Рип с запиленного винила поражает своей чистотой, песочком, хрипами и олдскульностью звучания :true:
Еще раз спасибо за окунание в 80-е :thanx:

6/10

_________________


Top
 Profile E-mail  
 
 
PostPosted: 23 Aug 2011 
BANNED
Joined: 12 Dec 2008
Posts: 885
Lоcаtion: BULGARIA
Age: 39
Name: DIMITЪR
А германская Ninja, в лослес нету? :shok:


Top
 Profile  
 
 
PostPosted: 23 Aug 2011 
Хиппей (support team)
User avatar
Joined: 30 Jul 2007
Posts: 96973
Lоcаtion: Киев (Kyiv, UA)
Age: 44
Name: Andrey
Нету :pardon:

_________________


Top
 Profile E-mail  
 
 
PostPosted: 05 Sep 2013 
Трешер
User avatar
Joined: 25 Feb 2011
Posts: 1034
Lоcаtion: Харьков
Age: 41
Name: Aleksandr
Спасибо! заценю :thanx:


Top
 Profile E-mail  
 
 
PostPosted: 16 Sep 2013 
Я набрал 1000 сообщений!
User avatar
Joined: 25 Dec 2008
Posts: 1545
Age: 42
Name: Павел
Scatterbrain wrote:
Отслушал альбом. Ну, глэм, как глэм

Глэм? А ты точно этот альбом слушал, а не другой какой? :nunu:


Top
 Profile  
 
 
PostPosted: 16 Sep 2013 
Хиппей (support team)
User avatar
Joined: 30 Jul 2007
Posts: 96973
Lоcаtion: Киев (Kyiv, UA)
Age: 44
Name: Andrey
Уже не помню, но если перезаливал его, то именно этот :fingal:

_________________


Top
 Profile E-mail  
 
Display posts from previous:  Sort by  
Post new topic Reply to topic  [ 28 posts ]  Go to page Previous  1, 2

All times are UTC + 3 hours


Who is online

Users browsing this forum: No registered users and 1 guest


You cannot post new topics in this forum
You cannot reply to topics in this forum
You cannot edit your posts in this forum
You cannot delete your posts in this forum
You cannot post attachments in this forum

Search for:
Яндекс.Метрика
Powered by phpBB © 2000, 2002, 2005, 2007 phpBB Group