\m/ 80's metal \m/

Информационно-аналитический форум "80 см пыли" (In Search We Trust) "У нас никто никуда не спешит"
Железнодорожная биржа - RailAgent
It is currently 13 Dec 2017

All times are UTC + 3 hours

Spoiler
Chat - temporary registration for foreign users (please leave your application here)







Post new topic Reply to topic  [ 1 post ] 
Author Message
 
PostPosted: 08 May 2017 
Хиппей (support team)
User avatar
Joined: 30 Jul 2007
Posts: 96973
Lоcаtion: Киев (Kyiv, UA)
Age: 44
Name: Andrey
Night Demon - 2015 - Curse Of The Damned [flac]

Image Image Image

Image Image Image Image

mirror: Depos l Narod l M-Cloud

log
Exact Audio Copy V1.0 beta 3 from 29. August 2011

EAC extraction logfile from 22. January 2015, 20:41

Night Demon / Curse Of The Damned

Used drive : PIONEER DVD-RW DVR-115D Adapter: 1 ID: 0

Read mode : Secure
Utilize accurate stream : Yes
Defeat audio cache : Yes
Make use of C2 pointers : No

Read offset correction : 48
Overread into Lead-In and Lead-Out : No
Fill up missing offset samples with silence : Yes
Delete leading and trailing silent blocks : No
Null samples used in CRC calculations : Yes
Used interface : Native Win32 interface for Win NT & 2000

Used output format : User Defined Encoder
Selected bitrate : 128 kBit/s
Quality : High
Add ID3 tag : No
Command line compressor : C:\Program Files\Exact Audio Copy\flac.exe
Additional command line options : -V -8 -T "Date=%year%" -T "Genre=%genre%" %source%


TOC of the extracted CD

Track | Start | Length | Start sector | End sector
---------------------------------------------------------
1 | 0:00.00 | 3:31.28 | 0 | 15852
2 | 3:31.28 | 5:00.23 | 15853 | 38375
3 | 8:31.51 | 3:04.42 | 38376 | 52217
4 | 11:36.18 | 2:38.27 | 52218 | 64094
5 | 14:14.45 | 6:49.39 | 64095 | 94808
6 | 21:04.09 | 3:06.31 | 94809 | 108789
7 | 24:10.40 | 4:32.18 | 108790 | 129207
8 | 28:42.58 | 4:08.48 | 129208 | 147855
9 | 32:51.31 | 3:06.25 | 147856 | 161830
10 | 35:57.56 | 3:14.26 | 161831 | 176406
11 | 39:12.07 | 5:15.71 | 176407 | 200102


Range status and errors

Selected range

Filename C:\Music\korrOZZYya\Night Demon - Curse Of The Damned - 2015\Night Demon - Curse Of The Damned.wav

Peak level 100.0 %
Extraction speed 6.7 X
Range quality 100.0 %
Test CRC 86E408EB
Copy CRC 86E408EB
Copy OK

No errors occurred


AccurateRip summary

Track 1 not present in database
Track 2 not present in database
Track 3 not present in database
Track 4 not present in database
Track 5 not present in database
Track 6 not present in database
Track 7 not present in database
Track 8 not present in database
Track 9 not present in database
Track 10 not present in database
Track 11 not present in database

None of the tracks are present in the AccurateRip database

End of status report

cue
REM GENRE "Heavy Metal"
REM DATE 2015
REM DISCID 970A6C0B
REM COMMENT "ExactAudioCopy v1.0b3"
PERFORMER "Night Demon"
TITLE "Curse Of The Damned"
FILE "Night Demon - Curse Of The Damned.flac" WAVE
TRACK 01 AUDIO
TITLE "Screams In The Night"
PERFORMER "Night Demon"
INDEX 01 00:00:00
TRACK 02 AUDIO
TITLE "Curse Of The Damned"
PERFORMER "Night Demon"
INDEX 00 03:29:29
INDEX 01 03:31:28
TRACK 03 AUDIO
TITLE "Satan"
PERFORMER "Night Demon"
INDEX 00 08:29:52
INDEX 01 08:31:51
TRACK 04 AUDIO
TITLE "Full Speed Ahead"
PERFORMER "Night Demon"
INDEX 00 11:34:19
INDEX 01 11:36:18
TRACK 05 AUDIO
TITLE "The Howling Man"
PERFORMER "Night Demon"
INDEX 00 14:12:46
INDEX 01 14:14:45
TRACK 06 AUDIO
TITLE "Heavy Metal Heat"
PERFORMER "Night Demon"
INDEX 00 21:02:10
INDEX 01 21:04:09
TRACK 07 AUDIO
TITLE "Livin' Dangerous"
PERFORMER "Night Demon"
INDEX 00 24:08:41
INDEX 01 24:10:40
TRACK 08 AUDIO
TITLE "Mastermind"
PERFORMER "Night Demon"
INDEX 00 28:40:59
INDEX 01 28:42:58
TRACK 09 AUDIO
TITLE "Run For Your Life"
PERFORMER "Night Demon"
INDEX 00 32:49:32
INDEX 01 32:51:31
TRACK 10 AUDIO
TITLE "Killer"
PERFORMER "Night Demon"
INDEX 00 35:55:57
INDEX 01 35:57:56
TRACK 11 AUDIO
TITLE "Save Me Now"
PERFORMER "Night Demon"
INDEX 00 39:10:08
INDEX 01 39:12:07



Night Demon - 2017 - Darkness Remains [flac]

Image Image Image Image Image Image Image

mirror: Depos l Narod l M-Cloud

log
Exact Audio Copy V1.3 from 2. September 2016

EAC extraction logfile from 21. April 2017, 19:06

Night Demon / Darkness Remains

Used drive : ATAPI iHAS122 W Adapter: 2 ID: 0

Read mode : Secure
Utilize accurate stream : Yes
Defeat audio cache : Yes
Make use of C2 pointers : No

Read offset correction : 48
Overread into Lead-In and Lead-Out : No
Fill up missing offset samples with silence : Yes
Delete leading and trailing silent blocks : No
Null samples used in CRC calculations : Yes
Used interface : Installed external ASPI interface

Used output format : User Defined Encoder
Selected bitrate : 1024 kBit/s
Quality : High
Add ID3 tag : No
Command line compressor : C:\Program Files\FLAC\flac.exe
Additional command line options : -V -8 -T "Date=%year%" -T "Genre=%genre%" -T"COMMENT=Ripped by Ilijan - ilko" -8 -V %source%


TOC of the extracted CD

Track | Start | Length | Start sector | End sector
---------------------------------------------------------
1 | 0:00.00 | 3:53.37 | 0 | 17511
2 | 3:53.37 | 3:24.26 | 17512 | 32837
3 | 7:17.63 | 2:45.44 | 32838 | 45256
4 | 10:03.32 | 4:11.25 | 45257 | 64106
5 | 14:14.57 | 3:36.44 | 64107 | 80350
6 | 17:51.26 | 3:24.30 | 80351 | 95680
7 | 21:15.56 | 3:28.05 | 95681 | 111285
8 | 24:43.61 | 3:29.24 | 111286 | 126984
9 | 28:13.10 | 4:08.65 | 126985 | 145649
10 | 32:22.00 | 5:31.43 | 145650 | 170517


Range status and errors

Selected range

Filename D:\ilko\Night Demon - Darkness Remains.wav

Peak level 100.0 %
Extraction speed 3.7 X
Range quality 100.0 %
Test CRC 4141CAE8
Copy CRC 4141CAE8
Copy OK

No errors occurred


AccurateRip summary

Track 1 not present in database
Track 2 not present in database
Track 3 not present in database
Track 4 not present in database
Track 5 not present in database
Track 6 not present in database
Track 7 not present in database
Track 8 not present in database
Track 9 not present in database
Track 10 not present in database

None of the tracks are present in the AccurateRip database

End of status report

---- CUETools DB Plugin V2.1.6

[CTDB TOCID: wWMzU5Qc59CP5WSsxRFN25lWsnY-] found
Submit result: wWMzU5Qc59CP5WSsxRFN25lWsnY- has been confirmed
Track | CTDB Status
1 | (2/2) Accurately ripped
2 | (2/2) Accurately ripped
3 | (2/2) Accurately ripped
4 | (2/2) Accurately ripped
5 | (2/2) Accurately ripped
6 | (2/2) Accurately ripped
7 | (2/2) Accurately ripped
8 | (2/2) Accurately ripped
9 | (2/2) Accurately ripped
10 | (2/2) Accurately ripped


==== Log checksum 15E30BAEB2B7A87D4B754D35FE99B5B0129BAC642FB2589DF516D44731F9204E ====

cue
REM GENRE "Heavy Metal"
REM DATE 2017
REM DISCID 8F08E10A
REM COMMENT "ExactAudioCopy v1.3"
PERFORMER "Night Demon"
TITLE "Darkness Remains"
FILE "Night Demon - Darkness Remains.flac" WAVE
TRACK 01 AUDIO
TITLE "Welcome To The Night"
PERFORMER "Night Demon"
INDEX 01 00:00:00
TRACK 02 AUDIO
TITLE "Hallowed Ground"
PERFORMER "Night Demon"
INDEX 00 03:51:38
INDEX 01 03:53:37
TRACK 03 AUDIO
TITLE "Maiden Hell"
PERFORMER "Night Demon"
INDEX 00 07:15:64
INDEX 01 07:17:63
TRACK 04 AUDIO
TITLE "Stranger In The Room"
PERFORMER "Night Demon"
INDEX 00 10:01:33
INDEX 01 10:03:32
TRACK 05 AUDIO
TITLE "Life On The Run"
PERFORMER "Night Demon"
INDEX 00 14:12:58
INDEX 01 14:14:57
TRACK 06 AUDIO
TITLE "Dawn Rider"
PERFORMER "Night Demon"
INDEX 00 17:49:27
INDEX 01 17:51:26
TRACK 07 AUDIO
TITLE "Black Widow"
PERFORMER "Night Demon"
INDEX 00 21:13:57
INDEX 01 21:15:56
TRACK 08 AUDIO
TITLE "On Your Own"
PERFORMER "Night Demon"
INDEX 00 24:41:62
INDEX 01 24:43:61
TRACK 09 AUDIO
TITLE "Flight Of The Manticore"
PERFORMER "Night Demon"
INDEX 00 28:11:11
INDEX 01 28:13:10
TRACK 10 AUDIO
TITLE "Darkness Remains"
PERFORMER "Night Demon"
INDEX 00 32:19:14
INDEX 01 32:22:00



Подробнее о коллективе на каком-то форуме пишут чота :arrow: viewtopic.php?f=85&t=14035


Image
Image
Image

_________________


Top
 Profile E-mail  
 
Display posts from previous:  Sort by  
Post new topic Reply to topic  [ 1 post ] 

All times are UTC + 3 hours


Who is online

Users browsing this forum: No registered users and 1 guest


You cannot post new topics in this forum
You cannot reply to topics in this forum
You cannot edit your posts in this forum
You cannot delete your posts in this forum
You cannot post attachments in this forum

Search for:
Яндекс.Метрика
Powered by phpBB © 2000, 2002, 2005, 2007 phpBB Group